Ссылка на приватное зеркало всего за 1$. Внимание количество ограничено!!!

OK

1+1

iTunes

мы

OK

1

WEB-DLRip

Джокер

Пифагор

Ведьмак / The Witcher сериал

iTunes

ПШазам

ОК

Оно 2

iTunes

30
pack

Вам бонус

ВАЖНО

!!Акция!!

Alien_RageХит недели

RePack

Resident Evil 21

ИГРА 18+

pack

RePack

jed

RePack

fifa19

RePack

Assassins Creed: Odyssey

RePack

NEED FOR SPEED™ PAYBACK

4 сезон

9 сезон

Бесстыжие 9 сезон

Все сериалы

все сериалы на PB.wtf

RePack

FAR CRY 5
  

Хулиганье / The Young Offenders / Сезон: 1-2 / Серии: 1-13 из 13 (Питер Футт) [2018-2019, Комедия, WEBRip 720p] [MVO] (Ozz) piratbit.cf

Хулиганье через торрент piratbit.cf

Раздают: 3 [ 1 MB/s ]
Размер: 11.24 GB | Добавлен: 11 д. назад | Торрент скачан:27 раз
Скачать  

09-01-2019 18:59 Хулиганье Скачать торрент  

The Young Offenders - First Season
Хулиганье - Первый сезон
Год выхода: 2018-2019
Страна
: Великобритания, Ирландия
Жанр
: комедия
Продолжительность: 1 x ~ 00:31:00
Перевод: Профессиональный (многоголосый закадровый) Ozz
Режиссер: Питер Футт

В ролях: Алекс Мёрфи, Крис Уолли, Jennifer Barry, Хилари Роуз, Доминик Макхейл, Demi Isaac Oviawe, П.Дж. Галлахер, Орла Фицджералд, Шэйн Кэйси, Эйприл Келли и др.


Описание
: Старшеклассники Конор и Джок не любят школу. Они проворачивают знатные аферы и не мирятся с действующими правилами. Каждый новый день для них - очередное приключение. Трудные учебные будни и не менее сложная семейная жизнь заставляет парней придумывать развлечения для самих себя. Правда, пускаясь в очередное приключение, они обрекают себя на серьезные проблемы. Выпутываться предстоит, как это обычно бывает, в весьма комичной обстановке, ведь никто не воспринимает серьезно главных персонажей, однако те порой ведут себя крайне вызывающе! Юные хулиганы готовы к реализации очередной авантюрной идеи.

ratingскриншот   Роли озвучивают: |Дмитрий Рыбин, Станислав Черсков, Алексей Серёгин и Маргарита Корш|
Автор перевода: |Александр Шумилов|
Подготовлено: Ozz
Очистка от рекламы: скриншот  

Качество: WEBRip 720p
Формат: MKV
Видео кодек: AVC
Аудио кодек: AC3
Видео: AVC, 1280x720 (16:9), 25 fps, 3000 kbps avg
Аудио #1: Russian 48 kHz, AC3 , 2 channels, 192 kbps |Ozz|
Аудио #2: English 48 kHz, AAC, 2 channels, 192 kbps |Eng|
Субтитры: Russian, English [srt]
General
Unique ID : 233830679016225556312108408361245001418 (0xAFEA2691DFFBD9AF3E0B527CCD10C6CA)
Complete name : F:\Хулиганьё. Сериал. Ozz (WEBRip 720p)\1 Сезон (2018)\The.Young.Offenders.s01e01. Эпизод 1.mkv
Format : Matroska
Format version : Version 4 / Version 2
File size : 594 MiB
Duration : 30 min 30 s
Overall bit rate mode : Variable
Overall bit rate : 2 723 kb/s
Movie name : Episode 1
Encoded date : UTC 2019-01-09 18:01:47
Writing application : mkvmerge v25.0.0 ('Prog Noir') 64-bit
Writing library : libebml v1.3.6 + libmatroska v1.4.9

Video
ID : 1
Format : AVC
Format/Info : Advanced Video Codec
Format profile : High@L4.1
Format settings : CABAC / 2 Ref Frames
Format settings, CABAC : Yes
Format settings, RefFrames : 2 frames
Codec ID : V_MPEG4/ISO/AVC
Duration : 30 min 30 s
Bit rate mode : Variable
Bit rate : 2 285 kb/s
Maximum bit rate : 3 500 kb/s
Width : 1 280 pixels
Height : 720 pixels
Display aspect ratio : 16:9
Frame rate mode : Constant
Frame rate : 25.000 FPS
Color space : YUV
Chroma subsampling : 4:2:0
Bit depth : 8 bits
Scan type : Progressive
Bits/(Pixel*Frame) : 0.099
Stream size : 498 MiB (84%)
Language : English
Default : Yes
Forced : No

Audio #1
ID : 2
Format : AC-3
Format/Info : Audio Coding 3
Format settings, Endianness : Big
Codec ID : A_AC3
Duration : 30 min 30 s
Bit rate mode : Constant
Bit rate : 192 kb/s
Channel(s) : 2 channels
Channel positions : Front: L R
Sampling rate : 48.0 kHz
Frame rate : 31.250 FPS (1536 SPF)
Bit depth : 16 bits
Compression mode : Lossy
Delay relative to video : -40 ms
Stream size : 41.9 MiB (7%)
Language : Russian
Service kind : Complete Main
Default : Yes
Forced : No

Audio #2
ID : 3
Format : AC-3
Format/Info : Audio Coding 3
Format settings, Endianness : Big
Codec ID : A_AC3
Duration : 30 min 30 s
Bit rate mode : Constant
Bit rate : 192 kb/s
Channel(s) : 2 channels
Channel positions : Front: L R
Sampling rate : 48.0 kHz
Frame rate : 31.250 FPS (1536 SPF)
Bit depth : 16 bits
Compression mode : Lossy
Delay relative to video : -16 ms
Stream size : 41.9 MiB (7%)
Language : English
Service kind : Complete Main
Default : No
Forced : No

Text #1
ID : 4
Format : UTF-8
Codec ID : S_TEXT/UTF8
Codec ID/Info : UTF-8 Plain Text
Language : Russian
Default : No
Forced : No

Text #2
ID : 5
Format : UTF-8
Codec ID : S_TEXT/UTF8
Codec ID/Info : UTF-8 Plain Text
Language : English
Default : No
Forced : No

скриншот  скриншот  скриншот  
Внимание! Раздача ведётся путём добавления новых серий; при каждом добавлении создаётся новый торрент. Чтобы начать докачку новой серии, пользователям необходимо сделать следующее:
(1) остановить скачивание,
(2) удалить старый торрент у себя из клиента (старые серии удалять не надо),
(3) скачать новый торрент и запустить его у себя в клиенте вместо старого, при этом указать клиенту путь в старую папку куда и должно происходить скачивание новых серий.

Ваш клиент при этом должен произвести хеширование (проверку) старой папки (если не производит сам - помогите ему сделать это), и будет докачивать только те серии которых у вас ещё нет. Старые серии при этом не удаляются, а продолжают раздаваться!

Eсли вы уже удалили старые серии, то предотвратить повторную закачку старых серий можно, отжав галочку в соответствующих местах при запуске нового торрента. По возможности, желательно не удалять старые серии как можно дольше чтобы релизёр не столько продолжал раздавать старые серии, а смог сконцентрироваться на новых.
piratbit.cf



Скачать Хулиганье через торрент https://i1.imageban.ru/out/2019/01/09/150ca8c31b1be50077c619a7f7fcea2f.jpg Скачать фильм Хулиганье через торрент бесплантно в хорошем качестве Описание: Старшеклассники Конор и Джок не любят школу. Они проворачивают знатные аферы и не мирятся с действующими правилами. Каждый новый ... 8.5 10 6
Торрент: Зарегистрирован [2020-01-14 15:44] · скачан: 27 раз
Статус: √ проверено
Размер: 11.24 GB
Как cкачать? Как скачать Хулиганье через торрент | qTorrent



Последний раз редактировалось: killermax2013 (2020-01-14 15:43), всего редактировалось 7 раз(а)

28-11-2019 20:33  

Отключить всю рекламу на сайте

16-01-2019 15:03 Хулиганье Скачать торрент  

юморной сериал и озвучка на уровне piratbit.cf



16-01-2019 18:12 Хулиганье Скачать торрент  

Хитяо! Что-то близкое к сериалу "Лондонские ирландцы"!piratbit.cf



    Дорогой пользователь! Огромная просьба, поблагодарите релизера, оцените раздачу и оставьте свои комментарий, если Вы скачали Хулиганье через торрент бесплатно! Внесите свою лепту в развитие PiratBit!
    Комментировать посты могут только пользователи прошедшие не сложную регистрацию
    Показать сообщения:    

    Хулиганье через торрент
    Скачать бесплатно Хулиганье
    Хулиганье скачать торрент
    Хулиганье смотреть онлайн
    Cкачать фильм Хулиганье бесплатно
    Хулиганье скачать торрент в хорошем качестве
    Хулиганье смотреть онлайн бесплатно в хорошем качестве


    Вы не можете начинать темы
    Вы не можете отвечать на сообщения
    Вы не можете редактировать свои сообщения
    Вы не можете удалять свои сообщения
    Вы не можете голосовать в опросах
    Вы не можете прикреплять файлы к сообщениям
    Вы можете скачивать файлы