MEGA NEWS Получи личный уникальный адрес сайта и защити себя от блокировок. Внимание количество ограничено!!!

iTunes

1+1

iTunes

мы

iTunes

1

iTunes

Чернобыль

iTunes

Ральф против интернета

Лицензия

ПШазам

Лицензия

Игра престолов

Лицензия

30
pack

ВАЖНО

!!Акция!!

Alien_RageХит недели

RePack

Resident Evil 21

ИГРА 18+

pack

RePack

Metro:Exodus

!!Акция!!

Alien_Rage

RePack

fifa19

RePack

Assassins Creed: Odyssey

RePack

NEED FOR SPEED™ PAYBACK

3 сезон

9 сезон

Бесстыжие 9 сезон

Все сериалы

все сериалы на PB.wtf

RePack

FAR CRY 5
Ребята, катастрофически не хватает 1900р. для оплаты серверов за АВГУСТ (всвязи с блокировками трафик упал в 3 раза), 1-2р., выручайте.
  

Мистер Мерседес / Mr. Mercedes / Сезон: 3 / Серии: 1-6 из 10 (Джек Бендер, Лора Иннес, Джон Дэвид Коулз) [2019, триллер, детектив, WEBRip] DVO [Kerob] piratbit.cf

Мистер Мерседес через торрент piratbit.cf

Качают: 1 [ 0 KB/s ]
Размер: 3.19 GB | Добавлен: 4 д. назад | Торрент скачан:0 раз
Скачать  

11-09-2019 15:39 Мистер Мерседес Скачать торрент  

Мистер Мерседес / Mr. Mercedes
Год выпуска: 2019
Страна: США
Жанр: триллер, детектив
Продолжительность: ~ 01:00:00
Перевод: Любительский (двухголосый) | Kerob
Субтитры: отсутствуют

Режиссер: Джек Бендер, Лора Иннес, Джон Дэвид Коулз

rating

В ролях: Брендан Глисон, Джаррель Джером, Гарри Тредэвэй, Холланд Тейлор, Брида Вул, Джастин Люпе, Максимилиано Эрнандес, Роберт Стэнтон, Джош Догерти, Клер Бронсон и другие.

Описание: Отставной полицейский Билл Ходжес возвращается к работе, так как ему не дает покоя нераскрытое дело — жестокое убийство шестнадцати человек. Брэди Хартфилд не может забыть пьянящее чувство, когда на угнанном «мерседесе» он врезался в группу ни в чём не повинных людей. Брэди не хочет останавливаться — он уже планирует новое преступление, на этот раз намного более масштабное. Биллу Ходжесу и его команде необходимо опередить его и спасти жизнь уже не десяткам, а сотням людей.

Качество: WEBRip
Формат: AVI

Видео: 704x396, ~ 1500 Кбит/сек, 23,976 fps
Аудио: Русский / MP3 / 2.0 / 128 kbs
скриншот  скриншот  скриншот  скриншот  

Общее
Полное имя : C:\Mr.Mercedes.S03.400p.Kerob\Mr.Mercedes.S03E01.400p.Kerob.avi
Формат : AVI
Формат/Информация : Audio Video Interleave
Размер файла : 742 Мбайт
Продолжительность : 1 ч. 3 м.
Режим общего битрейта : Постоянный
Общий поток : 1641 Кбит/сек
Программа кодирования : Lavf58.12.100

Видео
Идентификатор : 0
Формат : AVC
Формат/Информация : Advanced Video Codec
Профиль формата : Main@L3
Настройки формата : CABAC / 1 Ref Frames
Параметр CABAC формата : Да
Параметр RefFrames формата : 1 кадр
Параметр GOP формата : M=1, N=25
Идентификатор кодека : H264
Продолжительность : 1 ч. 3 м.
Вид битрейта : Постоянный
Битрейт : 1500 Кбит/сек
Ширина : 704 пикселя
Высота : 396 пикселей
Соотношение сторон : 16:9
Частота кадров : 23,976 (24000/1001) кадра/сек
Цветовое пространство : YUV
Субдискретизация насыщенности : 4:2:0
Битовая глубина : 8 бит
Тип развёртки : Прогрессивная
Бит/(Пиксели*Кадры) : 0.224
Размер потока : 651 Мбайт (88%)

Аудио
Идентификатор : 1
Формат : MPEG Audio
Версия формата : Version 1
Профиль формата : Layer 3
Настройки формата : Joint stereo / MS Stereo
Идентификатор кодека : 55
Идентификатор кодека/Подсказка : MP3
Продолжительность : 1 ч. 3 м.
Вид битрейта : Постоянный
Битрейт : 128 Кбит/сек
Каналы : 2 канала
Частота : 48,0 КГц
Метод сжатия : С потерями
Размер потока : 57,9 Мбайт (8%)
Выравнивание : Соединение по промежуткам

Когда раздача ведётся путём добавления новых серий, при каждом добавлении создётся новый торрент. Чтобы начать докачку новой серии, пользователям необходимо сделать следующее:
(1) остановить скачивание,
(2) удалить старый торрент у себя из клиента (старые серии удалять не надо),
(3) скачать новый торрент и запустить его у себя в клиенте вместо старого, при этом указать клиенту путь в старую папку, куда и должно происходить скачивание новых серий.
Ваш клиент при этом должен произвести хеширование (проверку) старой папки (если не производит сам - помогите ему сделать это), и будет докачивать только те серии, которых у вас ещё нет. Старые серии при этом не удаляются, а продолжают раздаваться!
Eсли вы уже удалили старые серии, то предотвратить повторную закачку старых серий можно, отжав галочку в соответсвующих местах при запуске нового торрента. По возможности, желательно не удалять старые серии как можно дольше, чтобы релизёр не столько продолжал раздавать старые серии, а смог сконцентрироваться на новых.
piratbit.cf



Скачать Мистер Мерседес через торрент https://b.radikal.ru/b22/1909/48/8d292c662f9c.jpg Скачать фильм Мистер Мерседес через торрент бесплантно в хорошем качестве Описание: Отставной полицейский Билл Ходжес возвращается к работе, так как ему не дает покоя нераскрытое дело — жестокое убийство ... 10 10 6
Торрент: Зарегистрирован [2019-10-16 15:59] · скачан: 0 раз
Статус: T временная
Размер: 3.19 GB
Как cкачать? Как скачать Мистер Мерседес через торрент | qTorrent

% Раздел Тема Автор DL S | L
T Зарубежные сериалы [ 10.88 GB ] Мистер Мерседес / Mr. Mercedes / Сезон: 3 / Серии: 1-6 из 10 [2019 WEBRip 720p] DVO [Kerob] bober100 Скачать
1 | 0
Зарубежные сериалы [ 10.43 GB ] Мистер Мерседес / Mr. Mercedes / Сезон: 3 / Серии: 1-6 из 10 [2019 WEB-DL 720p] MVO [AlexFilm] bober100 Скачать
1 | 0


>> Регистрируемся здесь <<






Отзывы и комментарии о схеме читаем и пишем здесь: ---> Отзывы и комментарии о схеме

Новые благодарочки в телеграм довольных пользователей:
скриншот   скриншот   скриншот   скриншот   скриншот
    Дорогой пользователь! Огромная просьба, поблагодарите релизера, оцените раздачу и оставьте свои комментарий, если Вы скачали Мистер Мерседес через торрент бесплатно! Внесите свою лепту в развитие PiratBit!
    Комментировать посты могут только пользователи прошедшие не сложную регистрацию
    Показать сообщения:    

    Мистер Мерседес через торрент
    Скачать бесплатно Мистер Мерседес
    Мистер Мерседес скачать торрент
    Мистер Мерседес смотреть онлайн
    Cкачать фильм Мистер Мерседес бесплатно
    Мистер Мерседес скачать торрент в хорошем качестве
    Мистер Мерседес смотреть онлайн бесплатно в хорошем качестве


    Вы не можете начинать темы
    Вы не можете отвечать на сообщения
    Вы не можете редактировать свои сообщения
    Вы не можете удалять свои сообщения
    Вы не можете голосовать в опросах
    Вы не можете прикреплять файлы к сообщениям
    Вы можете скачивать файлы