MEGA NEWS Получи личный уникальный адрес сайта и защити себя от блокировок. Внимание количество ограничено!!!

iTunes

1+1

iTunes

мы

iTunes

1

iTunes

Чернобыль

iTunes

Ральф против интернета

Лицензия

ПШазам

Лицензия

Игра престолов

Лицензия

30
pack

ВАЖНО

!!Акция!!

Alien_RageХит недели

RePack

Resident Evil 21

ИГРА 18+

pack

RePack

Metro:Exodus

!!Акция!!

Alien_Rage

RePack

fifa19

RePack

Assassins Creed: Odyssey

RePack

NEED FOR SPEED™ PAYBACK

3 сезон

9 сезон

Бесстыжие 9 сезон

Все сериалы

все сериалы на PB.wtf

RePack

FAR CRY 5
Ребята, катастрофически не хватает 1900р. для оплаты серверов за АВГУСТ (всвязи с блокировками трафик упал в 3 раза), 1-2р., выручайте.
  

Руслан и Людмила: Перезагрузка / Викрадена принцеса: Руслан і Людмила (Олег Маламуж) [2018, Мультфильм, фэнтези, комедия, BDRip 1080p] DUB (rus, ukr) [iTunes] piratbit.cf

Руслан и Людмила: Перезагрузка через торрент piratbit.cf

Раздают: 20 [ 396 KB/s ]
Размер: 6.37 GB | Добавлен: 23 д. назад | Торрент скачан:177 раз
Скачать  

24-09-2019 03:43 Руслан и Людмила: Перезагрузка Скачать торрент  

Руслан и Людмила: Перезагрузка / Викрадена принцеса: Руслан і Людмила
Год выпуска: 2018
Страна: Украина
Жанр: Мультфильм, фэнтези, комедия
Продолжительность: 01:27:30
Перевод: Дублированный | iTunes
Субтитры: отсутствуют

Режиссер: Олег Маламуж

rating

В ролях: Надежда Дорофеева, Алексей Завгородний, Евгений Малуха, Сергей Притула, Юрий Горбунов, Олег Михайлюта, Николай Боклан, Маша Ефросинина, Егор Крутоголов, Евгений Гашенко

Описание: Бродячий артист Руслан влюбляется в прекрасную Милу, даже не подозревая, что она принцесса. Когда злой волшебник Черномор похищает его возлюбленную, рассчитывая превратить силу её любви в собственное колдовское могущество, Руслан отправляется в погоню за украденной принцессой. Ему придётся преодолеть все преграды и опасности на своём пути, чтобы доказать, что настоящая любовь сильнее магии.

Качество: BDRip 1080p
Формат: MKV

Видео: MPEG-4 AVC, 7925 Кбит/с, 1920x804, 24 кадр/с
Аудио#1: Русский (AC3, 6 ch, 384 Кбит/с)
Аудио#2: украинский (AC3, 2 ch, 192 Кбит/с)
Аудио#3: английский (DTS, 6 ch, 1509 Кбит/с)
скриншот  скриншот  скриншот  скриншот  скриншот  

Общее
Уникальный идентификатор : 228464319631726553447046918881271363426 (0xABE0A09FED1A46CD8D9677E4B0AC3762)
Полное имя : D:ЗагрузкиThe.Stolen.Princess.2018.x264.BDRip.(1080p).OlLanDGroup.mkv
Формат : Matroska
Версия формата : Version 4 / Version 2
Размер файла : 6,37 Гбайт
Продолжительность : 1 ч. 31 м.
Общий поток : 10,0 Мбит/сек
Название фильма : Руслан и Людмила: Перезагрузка.2018.Rip by: ollan
Дата кодирования : UTC 2019-09-24 02:22:17
Программа кодирования : mkvmerge v6.5.0 ('Isn't she lovely') built on Oct 20 2013 12:50:05
Библиотека кодирования : libebml v1.3.0 + libmatroska v1.4.1
Обложка : Yes
Attachments : Cover - The.Stolen.Princess.png

Видео
Идентификатор : 1
Формат : AVC
Формат/Информация : Advanced Video Codec
Профиль формата : High@L4.1
Настройки формата : CABAC / 5 Ref Frames
Параметр CABAC формата : Да
Параметр ReFrames формата : 5 кадров
Идентификатор кодека : V_MPEG4/ISO/AVC
Продолжительность : 1 ч. 31 м.
Битрейт : 7925 Кбит/сек
Ширина : 1920 пикселей
Высота : 804 пикселя
Соотношение сторон : 2,40:1
Режим частоты кадров : Постоянный
Частота кадров : 24,000 кадра/сек
Цветовое пространство : YUV
Субдискретизация насыщенности : 4:2:0
Битовая глубина : 8 бит
Тип развёртки : Прогрессивная
Бит/(Пиксели*Кадры) : 0.214
Размер потока : 4,92 Гбайт (77%)
Библиотека кодирования : x264 core 146 r2538 121396c
Настройки программы : cabac=1 / ref=5 / deblock=1:-3:-3 / analyse=0x3:0x133 / me=umh / subme=11 / psy=1 / psy_rd=0.95:0.05 / mixed_ref=1 / me_range=64 / chroma_me=1 / trellis=2 / 8x8dct=1 / cqm=0 / deadzone=21,11 / fast_pskip=0 / chroma_qp_offset=-3 / threads=12 / lookahead_threads=3 / sliced_threads=0 / nr=0 / decimate=0 / interlaced=0 / bluray_compat=0 / constrained_intra=0 / bframes=10 / b_pyramid=2 / b_adapt=2 / b_bias=0 / direct=3 / weightb=1 / open_gop=0 / weightp=2 / keyint=240 / keyint_min=23 / scenecut=40 / intra_refresh=0 / rc_lookahead=40 / rc=2pass / mbtree=0 / bitrate=7925 / ratetol=1.0 / qcomp=0.60 / qpmin=0 / qpmax=69 / qpstep=4 / cplxblur=20.0 / qblur=0.5 / vbv_maxrate=50000 / vbv_bufsize=62500 / nal_hrd=none / filler=0 / ip_ratio=1.40 / pb_ratio=1.30 / aq=1:1.00
Язык : Ukrainian
Default : Да
Forced : Нет

Аудио #1
Идентификатор : 2
Формат : AC-3
Формат/Информация : Audio Coding 3
Идентификатор кодека : A_AC3
Продолжительность : 1 ч. 31 м.
Вид битрейта : Постоянный
Битрейт : 384 Кбит/сек
Каналы : 6 каналов
Расположение каналов : Front: L C R, Side: L R, LFE
Частота : 48,0 КГц
Частота кадров : 31,250 кадров/сек (1536 SPF)
Битовая глубина : 16 бит
Метод сжатия : С потерями
Размер потока : 250 Мбайт (4%)
Язык : Russian
Service kind : Complete Main
Default : Да
Forced : Нет

Аудио #2
Идентификатор : 3
Формат : AC-3
Формат/Информация : Audio Coding 3
Идентификатор кодека : A_AC3
Продолжительность : 1 ч. 31 м.
Вид битрейта : Постоянный
Битрейт : 192 Кбит/сек
Каналы : 2 канала
Расположение каналов : Front: L R
Частота : 48,0 КГц
Частота кадров : 31,250 кадров/сек (1536 SPF)
Битовая глубина : 16 бит
Метод сжатия : С потерями
Размер потока : 125 Мбайт (2%)
Заголовок : iTunes
Язык : Ukrainian
Service kind : Complete Main
Default : Нет
Forced : Нет

Аудио #3
Идентификатор : 4
Формат : DTS
Формат/Информация : Digital Theater Systems
Идентификатор кодека : A_DTS
Продолжительность : 1 ч. 31 м.
Вид битрейта : Постоянный
Битрейт : 1509 Кбит/сек
Каналы : 6 каналов
Расположение каналов : Front: L C R, Side: L R, LFE
Частота : 48,0 КГц
Частота кадров : 93,750 кадра/сек (512 SPF)
Битовая глубина : 16 бит
Метод сжатия : С потерями
Размер потока : 984 Мбайт (15%)
Язык : English
Default : Нет
Forced : Нет

Текст
Идентификатор : 5
Формат : UTF-8
Идентификатор кодека : S_TEXT/UTF8
Идентификатор кодека/Информация : UTF-8 Plain Text
Заголовок : Full
Язык : Russian
Default : Нет
Forced : Нет

Меню
00:00:00.000 : :Chapter 01
00:11:29.625 : :Chapter 02
00:21:00.500 : :Chapter 03
00:29:47.500 : :Chapter 04
00:37:19.208 : :Chapter 05
00:51:35.750 : :Chapter 06
01:04:29.083 : :Chapter 07
01:12:56.416 : :Chapter 08
01:23:49.291 : :Chapter 09

piratbit.cf



Скачать Руслан и Людмила: Перезагрузка через торрент https://c.radikal.ru/c29/1909/5b/2c24e9daf146.png Скачать фильм Руслан и Людмила: Перезагрузка через торрент бесплантно в хорошем качестве Описание: Бродячий артист Руслан влюбляется в прекрасную Милу, даже не подозревая, что она принцесса. Когда злой волшебник Черномор ... 10 10 8
Торрент: Зарегистрирован [2019-09-24 03:43] · скачан: 177 раз
Статус: √ проверено
Размер: 6.37 GB
Как cкачать? Как скачать Руслан и Людмила: Перезагрузка через торрент | qTorrent

% Раздел Тема Автор DL S | L
Зарубежные Мультфильмы (WEB-DL 720p, 1080p) [ 2.99 GB ] Руслан и Людмила: Перезагрузка / Викрадена принцеса: Руслан і Людмила [2018 Мультфильм WEB-DL 1080p] bober100 Скачать
30 | 0


>> Регистрируемся здесь <<






Отзывы и комментарии о схеме читаем и пишем здесь: ---> Отзывы и комментарии о схеме

Новые благодарочки в телеграм довольных пользователей:
скриншот   скриншот   скриншот   скриншот   скриншот
    Дорогой пользователь! Огромная просьба, поблагодарите релизера, оцените раздачу и оставьте свои комментарий, если Вы скачали Руслан и Людмила: Перезагрузка через торрент бесплатно! Внесите свою лепту в развитие PiratBit!
    Комментировать посты могут только пользователи прошедшие не сложную регистрацию
    Показать сообщения:    

    Руслан и Людмила: Перезагрузка через торрент
    Скачать бесплатно Руслан и Людмила: Перезагрузка
    Руслан и Людмила: Перезагрузка скачать торрент
    Руслан и Людмила: Перезагрузка смотреть онлайн
    Cкачать фильм Руслан и Людмила: Перезагрузка бесплатно
    Руслан и Людмила: Перезагрузка скачать торрент в хорошем качестве
    Руслан и Людмила: Перезагрузка смотреть онлайн бесплатно в хорошем качестве


    Вы не можете начинать темы
    Вы не можете отвечать на сообщения
    Вы не можете редактировать свои сообщения
    Вы не можете удалять свои сообщения
    Вы не можете голосовать в опросах
    Вы не можете прикреплять файлы к сообщениям
    Вы можете скачивать файлы