новый адрес
Ссылка на приватное зеркало всего за 1$. Внимание количество ограничено!!!

iTunes

1+1

iTunes

мы

WEB-DL

1

iTunes

Чернобыль

iTunes

Ральф против интернета

Лицензия

ПШазам

Лицензия

Оно 2

Лицензия

30
pack

Вам бонус

ВАЖНО

!!Акция!!

Alien_RageХит недели

RePack

Resident Evil 21

ИГРА 18+

pack

RePack

jed

!!Акция!!

Alien_Rage

RePack

fifa19

RePack

Assassins Creed: Odyssey

RePack

NEED FOR SPEED™ PAYBACK

3 сезон

9 сезон

Бесстыжие 9 сезон

Все сериалы

все сериалы на PB.wtf

RePack

FAR CRY 5
Ребята, катастрофически не хватает 1900р. для оплаты серверов за Октябрь (всвязи с блокировками трафик упал в 3 раза), 1-2р., выручайте.
  

Дылды / Сезон: 1 / Серии: 1-21 из 21 (Сергей Сенцов) [2019, Комедия, спорт, WEB-DL 1080p] piratbit.cf

Дылды через торрент piratbit.cf

Раздают: 4 [ 0 KB/s ] Качают: 2 [ 0 KB/s ]
Размер: 18.39 GB | Добавлен: 1 мес. 10 д. назад | Торрент скачан:92 раза
Скачать  

24-09-2019 16:46 Дылды Скачать торрент  

Дылды
Год выпуска: 2019
Страна: Россия
Жанр: Комедия, спорт
Продолжительность: ~ 00:25:00 (Серия)
Субтитры: отсутствуют

Режиссер: Сергей Сенцов



В ролях: Павел Деревянко, Анна Невская, Дарья Урсуляк, Татьяна Орлова, Павел Майков, Анна Антонова, Сергей Рубеко, Ангелина Поплавская, Изабель Эйдлен, Евгения Тремасова, Юлия Макарова (II), Дмитрий Караневский, Степан Девонин, Анатолий Горячев, Марина Коваленко, Александр Андриенко, Николай Лунин (II), Дарья Пицик, Надежда Карпова, Маша Тухарь

Описание: Успешный тренер, сексист и бабник Михаил Ковалёв теряет работу из-за скандального характера и неуважительного отношения к женщинам. Чтобы вернуться в Суперлигу, ему предстоит выиграть чемпионат с провинциальной студенческой женской командой. Помешать ему в этом постараются проректор-перфекционист Ирина и затаившая обиду экс-девушка Наталья.

Качество: WEB-DL 1080p
Формат: MKV

Видео: 1920x1080, (16:9), 25 fps, AVC MPEG-4 (x264), High@L5 ~ 5000 kbps , 0.096 bit/pixel
Аудио: 48 kHz, AC3, 2/0 (L,R) ch, ~192 kbps
скриншот  скриншот  скриншот  скриншот  

Общее
Уникальный идентификатор : 102933759734987394139579243124170800974 (0x4D70522E1E150C5DF511DCC49F55BF4E)
Полное имя : C:\Dyldy.2019.WEB-DL.(1080p).Getty\Dyldy.s01e01.2019.WEB-DL.(1080p).Getty.mkv
Формат : Matroska
Версия формата : Version 4
Размер файла : 963 Мбайт
Продолжительность : 26 м. 3 с.
Режим общего битрейта : Переменный
Общий поток : 5169 Кбит/сек
Дата кодирования : UTC 2019-09-24 15:56:19
Программа кодирования : mkvmerge v36.0.0 (''Is That Jazz?'') 64-bit
Библиотека кодирования : libebml v1.3.9 + libmatroska v1.5.2

Видео
Идентификатор : 1
Формат : AVC
Формат/Информация : Advanced Video Codec
Профиль формата : High@L5
Настройки формата : CABAC / 5 Ref Frames
Параметр CABAC формата : Да
Параметр RefFrames формата : 5 кадров
Параметр GOP формата : M=4, N=50
Идентификатор кодека : V_MPEG4/ISO/AVC
Продолжительность : 26 м. 3 с.
Вид битрейта : Переменный
Битрейт : 4975 Кбит/сек
Максимальный битрейт : 40,0 Мбит/сек
Ширина : 1920 пикселей
Высота : 1080 пикселей
Соотношение сторон : 16:9
Режим частоты кадров : Постоянный
Частота кадров : 25,000 кадров/сек
Цветовое пространство : YUV
Субдискретизация насыщенности : 4:2:0
Битовая глубина : 8 бит
Тип развёртки : Прогрессивная
Бит/(Пиксели*Кадры) : 0.096
Размер потока : 927 Мбайт (96%)
Язык : Russian
Default : Да
Forced : Нет
Цветовой диапазон : Limited
Основные цвета : BT.709
Характеристики трансфера : BT.709
Коэффициенты матрицы : BT.709

Аудио
Идентификатор : 2
Формат : AC-3
Формат/Информация : Audio Coding 3
Коммерческое название : Dolby Digital
Идентификатор кодека : A_AC3
Продолжительность : 26 м. 3 с.
Вид битрейта : Постоянный
Битрейт : 192 Кбит/сек
Каналы : 2 канала
ChannelLayout : L R
Частота : 48,0 КГц
Частота кадров : 31,250 кадров/сек (1536 SPF)
Метод сжатия : С потерями
Размер потока : 35,8 Мбайт (4%)
Язык : Russian
ServiceKind/String : Complete Main
Default : Да
Forced : Нет
Показать скриншоты

Внимание! Раздача ведётся путём добавления новых серий; при каждом добавлении создаётся новый торрент.
Чтобы начать докачку новой серии, пользователям необходимо сделать следующее:
1. Остановить скачивание;
2. Удалить старый торрент у себя из клиента (старые серии удалять не надо);
3. Скачать новый торрент и запустить его у себя в клиенте вместо старого, при этом указать клиенту путь в старую папку куда и должно происходить скачивание новых серий. Ваш клиент при этом должен произвести хеширование (проверку) старой папки и будет докачивать только те серии, которых у вас ещё нет. Старые серии при этом не удаляются, а продолжают раздаваться! Eсли вы уже удалили старые серии, то предотвратить повторную закачку старых серий можно, отжав галочку в соответствующих местах при запуске нового торрента.
piratbit.cf



Скачать Дылды через торрент https://img16.lostpic.net/2019/09/24/9bcff80dc828ae4f0d1e8d3b1bc92f8d.jpg Скачать фильм Дылды через торрент бесплантно в хорошем качестве Описание: Успешный тренер, сексист и бабник Михаил Ковалёв теряет работу из-за скандального характера и неуважительного отношения к ... 9 10 24
Info! Золотая раздача, скачанное не засчитывается.
Торрент: Зарегистрирован [2019-10-31 17:33] · скачан: 92 раз
Статус: √ проверено
Размер: 18.39 GB
Как cкачать? Как скачать Дылды через торрент | qTorrent

% Раздел Тема Автор DL S | L
Наши сериалы [ 6.32 GB ] Дылды / Сезон: 1 / Серии: 1-21 из 21 [2019 WEB-DLRip-AVC] bober100 Скачать
7 | 7
Наши сериалы [ 12.33 GB ] Дылды / Сезон: 1 / Серии: 1-21 из 21 [2019 WEB-DL 720p] bober100 Скачать
3 | 2
Наши сериалы [ 7.18 GB ] Дылды / Сезон: 1 / Серии: 1-21 из 21 [2019 WEB-DLRip] bober100 Скачать
7 | 5


Последний раз редактировалось: bober100 (2019-10-31 17:33), всего редактировалось 18 раз(а)

28-11-2019 20:33  

Отключить всю рекламу на сайте

25-09-2019 05:42 Дылды Скачать торрент  

Сериал смотрится легко,правда Деревянко с очень опухшей рожей снимается, то ли пьет как лошадь, то ли возраст и болезни.piratbit.cf



    Дорогой пользователь! Огромная просьба, поблагодарите релизера, оцените раздачу и оставьте свои комментарий, если Вы скачали Дылды через торрент бесплатно! Внесите свою лепту в развитие PiratBit!
    Комментировать посты могут только пользователи прошедшие не сложную регистрацию
    Показать сообщения:    

    Дылды через торрент
    Скачать бесплатно Дылды
    Дылды скачать торрент
    Дылды смотреть онлайн
    Cкачать фильм Дылды бесплатно
    Дылды скачать торрент в хорошем качестве
    Дылды смотреть онлайн бесплатно в хорошем качестве


    Вы не можете начинать темы
    Вы не можете отвечать на сообщения
    Вы не можете редактировать свои сообщения
    Вы не можете удалять свои сообщения
    Вы не можете голосовать в опросах
    Вы не можете прикреплять файлы к сообщениям
    Вы можете скачивать файлы