MEGA NEWS Получи личный уникальный адрес сайта и защити себя от блокировок. Внимание количество ограничено!!!

iTunes

1+1

iTunes

мы

iTunes

1

iTunes

Чернобыль

iTunes

Ральф против интернета

Лицензия

ПШазам

Лицензия

Игра престолов

Лицензия

30
pack

ВАЖНО

!!Акция!!

Alien_RageХит недели

RePack

Resident Evil 21

ИГРА 18+

pack

RePack

Metro:Exodus

!!Акция!!

Alien_Rage

RePack

fifa19

RePack

Assassins Creed: Odyssey

RePack

NEED FOR SPEED™ PAYBACK

3 сезон

9 сезон

Бесстыжие 9 сезон

Все сериалы

все сериалы на PB.wtf

RePack

FAR CRY 5
Ребята, катастрофически не хватает 1900р. для оплаты серверов за АВГУСТ (всвязи с блокировками трафик упал в 3 раза), 1-2р., выручайте.
  

Зло / Evil / Сезон: 1 / Серии: 1-3 из 13 (Роберт Кинг) [2019, драма, WEB-DL 720p] MVO [NewStudio] piratbit.cf

Зло через торрент piratbit.cf

Раздают: 1 [ 55 KB/s ]
Размер: 4.37 GB | Добавлен: 6 д. назад | Торрент скачан:4 раза
Скачать  

02-10-2019 21:37 Зло Скачать торрент  

Зло | Evil
«***»
Производство: США
Год выпуска: 2019
Жанр: драма
Продолжительность: ~ 00:44 :00 серия
Премьера (мир): 26 сентября 2019
Перевод: Профессиональный (многоголосый закадровый) | NewStudio
Субтитры: Отсутствуют

Режиссёр: Роберт Кинг, Рон Андервуд

В ролях: Катя Херберс, Майк Колтер, Майкл Эмерсон, Аасиф Мандви, Бруклин Шак, Скайлар Грэй, Мэдди Крокко, Далия Напп, Ной Роббинс, Эвелин Джовине

Описание:
В центре сюжета — психолог, специализирующийся на событиях, которые пресса квалифицирует как «чудо». Реально ли этим явлениям нет объяснения или их все-таки можно научно обосновать? Компанию скептически настроенной девушке составят (неожиданно) священник и мутноватого вида «синий воротничок». Они сошлись, лед и пламень, то есть холодное научное знание и мистика — чета Кинг предлагает включиться в очередную увлекательную борьбу противоположностей.



Качество: WEB-DL 720p
Формат: MKV

Видео: AVC, 1280 x 718 (1.783), 23.976 fps, ~4114 kbps
Аудио Rus: AC-3, 48 kHz, 6 ch, 384 kbps |NewStudio|
Аудио Eng: AC-3, 48 kHz, 6 ch, 384 kbps |Original|


Реклама: Отсутствует
Общее
Уникальный идентификатор : 181165645768779006441300230105616261142 (0x884B3BF50EC771E41C7C50957A26A016)
Полное имя : E:\Evil.s01.WEBDL.720p.NewStudio\Evil.s01e01.WEBDL.720p.NewStudio.mkv
Формат : Matroska
Версия формата : Version 4
Размер файла : 1,51 Гбайт
Продолжительность : 44 м. 20 с.
Общий поток : 4884 Кбит/сек
Дата кодирования : UTC 2019-10-02 13:42:20
Программа кодирования : mkvmerge v37.0.0 ('Leave It') 64-bit
Библиотека кодирования : libebml v1.3.9 + libmatroska v1.5.2

Видео
Идентификатор : 1
Формат : AVC
Формат/Информация : Advanced Video Codec
Профиль формата : High@L3.1
Настройки формата : 2 Ref Frames
Параметр CABAC формата : Нет
Параметр RefFrames формата : 2 кадра
Идентификатор кодека : V_MPEG4/ISO/AVC
Продолжительность : 44 м. 20 с.
Битрейт : 4114 Кбит/сек
Ширина : 1280 пикселей
Высота : 718 пикселей
Соотношение сторон : 16:9
Режим частоты кадров : Постоянный
Частота кадров : 23,976 (24000/1001) кадра/сек
Цветовое пространство : YUV
Субдискретизация насыщенности : 4:2:0
Битовая глубина : 8 бит
Тип развёртки : Прогрессивная
Бит/(Пиксели*Кадры) : 0.187
Размер потока : 1,27 Гбайт (84%)
Язык : English
Default : Да
Forced : Нет
Цветовой диапазон : Limited
Основные цвета : BT.709
Характеристики трансфера : BT.709
Коэффициенты матрицы : BT.709

Аудио #1
Идентификатор : 2
Формат : AC-3
Формат/Информация : Audio Coding 3
Коммерческое название : Dolby Digital
Идентификатор кодека : A_AC3
Продолжительность : 44 м. 20 с.
Вид битрейта : Постоянный
Битрейт : 384 Кбит/сек
Каналы : 6 каналов
ChannelLayout : L R C LFE Ls Rs
Частота : 48,0 КГц
Частота кадров : 31,250 кадров/сек (1536 SPF)
Метод сжатия : С потерями
Задержка видео : -42 мс.
Размер потока : 122 Мбайт (8%)
Язык : Russian
ServiceKind/String : Complete Main
Default : Да
Forced : Нет

Аудио #2
Идентификатор : 3
Формат : AC-3
Формат/Информация : Audio Coding 3
Коммерческое название : Dolby Digital
Идентификатор кодека : A_AC3
Продолжительность : 44 м. 20 с.
Вид битрейта : Постоянный
Битрейт : 384 Кбит/сек
Каналы : 6 каналов
ChannelLayout : L R C LFE Ls Rs
Частота : 48,0 КГц
Частота кадров : 31,250 кадров/сек (1536 SPF)
Метод сжатия : С потерями
Задержка видео : -42 мс.
Размер потока : 122 Мбайт (8%)
Язык : English
ServiceKind/String : Complete Main
Default : Нет
Forced : Нет
Раздача ведётся путём добавления новых серий; при каждом добавлении создаётся новый торрент.
Чтобы начать докачку новой серии, пользователям необходимо сделать следующее:
1. остановить скачивание,
2. удалить старый торрент у себя из клиента (старые серии удалять не надо),
3. скачать новый торрент и запустить его у себя в клиенте вместо старого, при этом указать клиенту путь в старую папку, куда и должно происходить скачивание новых серий.

Ваш клиент при этом должен произвести хеширование (проверку) старой папки (если не производит сам - помогите ему сделать это), и будет докачивать только те серии которых у вас ещё нет. Старые серии при этом не удаляются, а продолжают раздаваться!

Eсли вы уже удалили старые серии, то предотвратить повторную закачку старых серий можно, отжав галочку в соответствующих местах при запуске нового торрента. По возможности, желательно не удалять старые серии как можно дольше, чтобы релизёр не столько продолжал раздавать старые серии, а смог сконцентрироваться на новых.

Совет для тех, кто не хочет ждать перехеширования:
Создайте ещё одну папку рядом с папкой сериала (рядом, а не в ней!!!). Каждую новую серию после удачной загрузки копируйте в новую папку так чтобы ваша основная папка всегда была пуста. Когда ваш новый торрент предложит вам закачать все файлы, выберете только последнюю. Для сидирования же укажите адрес новой папки.

Как закачать отдельный файл из торрента или докачать ранее пропущенные файлы торрента!
1. Открыть торрент
2. Снять галки с тех файлов торрента, которые мы не хотим закачивать. Оставляем только на нужных нам файлах (файле).
3. Нажать О.К.

В клиенте utorrent

Инструкция

1) Открыть торрент


2) Снять галки с тех файлов торрента, которые мы не хотим закачивать:

* либо вручную, снимая с каждого файла галку( скрин №1)
* либо, нажав кнопку "Снять метки (Select None)", сняв сразу со всех файлов(скрин №2)
№1

№2

Оставляем только на нужных нам файлах (файле).

3)Нажать О.К
Приятного просмотра!!!piratbit.cf



Скачать Зло через торрент https://i5.imageban.ru/out/2019/10/02/6dfc94a258bc48ad5cbf05cd9b1d125d.png Скачать фильм Зло через торрент бесплантно в хорошем качестве Описание:В центре сюжета — психолог, специализирующийся на событиях, которые пресса квалифицирует как «чудо». Реально ли этим явлениям нет ... 10 10 2
Торрент: Зарегистрирован [2019-10-14 20:13] · скачан: 4 раз
Статус: √ проверено
Размер: 4.37 GB
Как cкачать? Как скачать Зло через торрент | qTorrent

% Раздел Тема Автор DL S | L
Зарубежные сериалы [ 1.6 GB ] Зло / Evil / Сезон: 1 / Серии: 1-3 из 13 [2019 WEBRip] [MVO] killermax2013 Скачать
3 | 0


>> Регистрируемся здесь <<






Отзывы и комментарии о схеме читаем и пишем здесь: ---> Отзывы и комментарии о схеме

Новые благодарочки в телеграм довольных пользователей:
скриншот   скриншот   скриншот   скриншот   скриншот
    Дорогой пользователь! Огромная просьба, поблагодарите релизера, оцените раздачу и оставьте свои комментарий, если Вы скачали Зло через торрент бесплатно! Внесите свою лепту в развитие PiratBit!
    Комментировать посты могут только пользователи прошедшие не сложную регистрацию
    Показать сообщения:    

    Зло через торрент
    Скачать бесплатно Зло
    Зло скачать торрент
    Зло смотреть онлайн
    Cкачать фильм Зло бесплатно
    Зло скачать торрент в хорошем качестве
    Зло смотреть онлайн бесплатно в хорошем качестве


    Вы не можете начинать темы
    Вы не можете отвечать на сообщения
    Вы не можете редактировать свои сообщения
    Вы не можете удалять свои сообщения
    Вы не можете голосовать в опросах
    Вы не можете прикреплять файлы к сообщениям
    Вы можете скачивать файлы