новый адрес пиратбит piratbit
Мега распродажа FORZA HORIZON 4 ULTIMATE+ВСЕ DLC+ОНЛАЙН всего за 499р. 349 руб. (супер цена). Внимание количество ограничено!!!

iTunes

1+1

iTunes

мы

iTunes

1

iTunes

Чернобыль

iTunes

Ральф против интернета

Лицензия

ПШазам

Лицензия

Игра престолов

Лицензия

30
pack

ВАЖНО

!!Акция!!

Alien_RageХит недели

RePack

Resident Evil 21

ИГРА 18+

pack

RePack

Metro:Exodus

!!Акция!!

Alien_Rage

RePack

fifa19

RePack

Assassins Creed: Odyssey

RePack

NEED FOR SPEED™ PAYBACK

3 сезон

9 сезон

Бесстыжие 9 сезон

Все сериалы

все сериалы на PB.wtf

RePack

FAR CRY 5
Ребята, катастрофически не хватает 1900р. для оплаты серверов за Октябрь (всвязи с блокировками трафик упал в 3 раза), 1-2р., выручайте.
  

Клуб любителей книг и пирогов из картофельных очистков / The Guernsey Literary and Potato Peel Pie Society (Майк Ньюэлл) [2018, Драма, мелодрама, история, BDRip 720p] DUB [iTunes] +MVO [Jaskier] piratbit.cf

Клуб любителей книг и пирогов из картофельных очистков через торрент piratbit.cf

Раздают: 4 [ 0 KB/s ]
Размер: 5.76 GB | Добавлен: 1 мес. 7 д. назад | Торрент скачан:65 раз
Скачать  

06-10-2019 19:49 Клуб любителей книг и пирогов из картофельных очистков Скачать торрент  

Клуб любителей книг и пирогов из картофельных очистков
The Guernsey Literary and Potato Peel Pie Society

Год выпуска: 2018
Страна: Великобритания, США
Жанр: Драма, мелодрама, история
Продолжительность: 02:03:27
Перевод:

#1 Дублированный | iTunes
#2 Профессиональный (многоголосый) | Jaskier

Субтитры: русские (полные), английские (полные)

Режиссер: Майк Ньюэлл

rating

В ролях: Лили Джеймс, Джессика Браун-Финдли, Мэттью Гуд, Глен Пауэлл, Михил Хаушман, Кэтрин Паркинсон, Пенелопа Уилтон, Том Кортни, Брона Галлахер, Марек Оравек

Описание: В послевоенном Лондоне молодая писательница Джулиет пытается найти сюжет для новой книги, но об ужасах войны писать ей решительно не хочется, прочие темы кажутся либо скучными, либо неуместными. На помощь приходит случай - в виде письма одного свиновода с острова Гернси. Оказывается, даже свинари любят почитать, и неведомый Доуси, к которому в руки попала книга, некогда принадлежавшая Джулиет, просит ее посоветовать хорошую книжную лавку. Дело в том, что на Гернси с книгами сейчас туго, поскольку остров, в годы войны оккупированный немцами, только-только возрождается к жизни. Письмо переворачивает жизнь Джулиет. История книжного клуба, ставшего прикрытием для запрещенных встреч жителей деревни, увлекает и затягивает ее. Так начинается переписка с самыми разными людьми.

Качество: BDRip 720p
Формат: MKV

Видео: MPEG-4 AVC, 1280x690, 5208 kbps, 24,000 fps
Аудио#1: русский, AC3, 5.1 ch, 48 kHz, 384 kbps | iTunes
Аудио#2: русский, AC3, 5.1 ch, 48 kHz, 640 kbps | Jaskier
Аудио#3: английский, AC3, 5.1 ch, 48 kHz, 448 kbps | Оригинал
скриншот  скриншот  скриншот  скриншот  скриншот  

Общее
Уникальный идентификатор : 189905861377693764671550810591427075057 (0x8EDE89DB6933169F880765B26A249BF1)
Полное имя : G:Torrent2TheGuernseyLiteraryandPotatoPeelPieSocietyBDRip720p.mkv
Формат : Matroska
Версия формата : Version 4 / Version 2
Размер файла : 5,76 Гбайт
Продолжительность : 2 ч. 3 м.
Общий поток : 6678 Кбит/сек
Дата кодирования : UTC 2019-10-06 19:08:59
Программа кодирования : mkvmerge v9.5.0 ('Quiet Fire') 64bit
Библиотека кодирования : libebml v1.3.4 + libmatroska v1.4.5

Видео
Идентификатор : 1
Формат : AVC
Формат/Информация : Advanced Video Codec
Профиль формата : High@L4.1
Настройки формата : CABAC / 9 Ref Frames
Параметр CABAC формата : Да
Параметр RefFrames формата : 9 кадров
Идентификатор кодека : V_MPEG4/ISO/AVC
Продолжительность : 2 ч. 3 м.
Битрейт : 5208 Кбит/сек
Ширина : 1280 пикселей
Высота : 690 пикселей
Соотношение сторон : 1,85:1
Режим частоты кадров : Постоянный
Частота кадров : 24,000 кадра/сек
Цветовое пространство : YUV
Субдискретизация насыщенности : 4:2:0
Битовая глубина : 8 бит
Тип развёртки : Прогрессивная
Бит/(Пиксели*Кадры) : 0.246
Размер потока : 4,49 Гбайт (78%)
Заголовок : Sisendrovich(R)
Библиотека кодирования : x264 core 157 r2958 57baac4
Настройки программы : cabac=1 / ref=9 / deblock=1:-1:-1 / analyse=0x3:0x133 / me=tesa / subme=11 / psy=1 / psy_rd=1.00:0.00 / mixed_ref=1 / me_range=32 / chroma_me=1 / trellis=2 / 8x8dct=1 / cqm=0 / deadzone=21,11 / fast_pskip=0 / chroma_qp_offset=-2 / threads=17 / lookahead_threads=4 / sliced_threads=0 / nr=0 / decimate=0 / interlaced=0 / bluray_compat=0 / constrained_intra=0 / bframes=12 / b_pyramid=2 / b_adapt=2 / b_bias=0 / direct=3 / weightb=1 / open_gop=0 / weightp=2 / keyint=240 / keyint_min=23 / scenecut=40 / intra_refresh=0 / rc_lookahead=120 / rc=2pass / mbtree=0 / bitrate=5208 / ratetol=1.0 / qcomp=0.70 / qpmin=0 / qpmax=69 / qpstep=4 / cplxblur=20.0 / qblur=0.5 / vbv_maxrate=50000 / vbv_bufsize=62500 / nal_hrd=none / filler=0 / ip_ratio=1.40 / pb_ratio=1.30 / aq=3:0.90
Язык : English
Default : Да
Forced : Нет
Цветовой диапазон : Limited
Основные цвета : BT.709
Характеристики трансфера : BT.709
Коэффициенты матрицы : BT.709

Аудио #1
Идентификатор : 2
Формат : AC-3
Формат/Информация : Audio Coding 3
Параметр Endianness формата : Big
Идентификатор кодека : A_AC3
Продолжительность : 2 ч. 3 м.
Вид битрейта : Постоянный
Битрейт : 384 Кбит/сек
Каналы : 6 каналов
Расположение каналов : Front: L C R, Side: L R, LFE
Частота : 48,0 КГц
Частота кадров : 31,250 кадров/сек (1536 SPF)
Битовая глубина : 16 бит
Метод сжатия : С потерями
Размер потока : 339 Мбайт (6%)
Заголовок : iTunes
Язык : Russian
Default : Да
Forced : Нет

Аудио #2
Идентификатор : 3
Формат : AC-3
Формат/Информация : Audio Coding 3
Параметр Endianness формата : Big
Идентификатор кодека : A_AC3
Продолжительность : 2 ч. 3 м.
Вид битрейта : Постоянный
Битрейт : 640 Кбит/сек
Каналы : 6 каналов
Расположение каналов : Front: L C R, Side: L R, LFE
Частота : 48,0 КГц
Частота кадров : 31,250 кадров/сек (1536 SPF)
Битовая глубина : 16 бит
Метод сжатия : С потерями
Размер потока : 565 Мбайт (10%)
Заголовок : Jaskier
Язык : Russian
Default : Нет
Forced : Нет

Аудио #3
Идентификатор : 4
Формат : AC-3
Формат/Информация : Audio Coding 3
Параметр Endianness формата : Big
Идентификатор кодека : A_AC3
Продолжительность : 2 ч. 3 м.
Вид битрейта : Постоянный
Битрейт : 448 Кбит/сек
Каналы : 6 каналов
Расположение каналов : Front: L C R, Side: L R, LFE
Частота : 48,0 КГц
Частота кадров : 31,250 кадров/сек (1536 SPF)
Битовая глубина : 16 бит
Метод сжатия : С потерями
Размер потока : 396 Мбайт (7%)
Заголовок : eng
Язык : English
Default : Нет
Forced : Нет

Текст #1
Идентификатор : 5
Формат : UTF-8
Идентификатор кодека : S_TEXT/UTF8
Идентификатор кодека/Информация : UTF-8 Plain Text
Продолжительность : 1 ч. 59 м.
Битрейт : 98 бит/сек
ElementCount : 1760
Размер потока : 85,9 Кбайт (0%)
Заголовок : rusFull
Язык : Russian
Default : Нет
Forced : Нет

Текст #2
Идентификатор : 6
Формат : UTF-8
Идентификатор кодека : S_TEXT/UTF8
Идентификатор кодека/Информация : UTF-8 Plain Text
Продолжительность : 1 ч. 59 м.
Битрейт : 57 бит/сек
ElementCount : 1477
Размер потока : 50,4 Кбайт (0%)
Заголовок : engFull
Язык : English
Default : Нет
Forced : Нет

Меню
00:00:00.000 : :Chapter 01
00:10:31.333 : :Chapter 02
00:18:53.833 : :Chapter 03
00:29:07.750 : :Chapter 04
00:40:53.750 : :Chapter 05
00:49:02.166 : :Chapter 06
00:58:55.375 : :Chapter 07
01:07:56.125 : :Chapter 08
01:17:33.208 : :Chapter 09
01:27:39.208 : :Chapter 10
01:37:37.625 : :Chapter 11
01:46:54.250 : :Chapter 12

piratbit.cf



Скачать Клуб любителей книг и пирогов из картофельных очистков через торрент http://lostpix.com/thumbs/2019-10/03/ulb4e3shyf4kc2joqf3wci4nl.png Скачать фильм Клуб любителей книг и пирогов из картофельных очистков через торрент бесплантно в хорошем качестве Описание: В послевоенном Лондоне молодая писательница Джулиет пытается найти сюжет для новой книги, но об ужасах войны писать ей решительно ... 10 10 5
Торрент: Зарегистрирован [2019-10-06 19:49] · скачан: 65 раз
Статус: √ проверено
Размер: 5.76 GB
Как cкачать? Как скачать Клуб любителей книг и пирогов из картофельных очистков через торрент | qTorrent

% Раздел Тема Автор DL S | L
Фильмы 2018 [DVDrip, WEB-DLRip, HDrip] (DUB, MVO) [ 1.45 GB ] Клуб любителей книг и пирогов из картофельных очистков / The Guernsey Literary and Potato Peel Pie Society [2018 история BDRip 1080p] bober100 Скачать
11 | 0
Фильмы [HD 720p, 1080p] (Хороший звук DUB, MVO) [ 9.26 GB ] Клуб любителей книг и пирогов из картофельных очистков / The Guernsey Literary and Potato Peel Pie Society [2018 история BDRip 1080p] +MVO [Jaskier] bober100 Скачать
7 | 0
Фильмы 2018 [DVDrip, WEB-DLRip, HDrip] (DUB, MVO) [ 1.46 GB ] Клуб любителей книг и пирогов из картофельных очистков / The Guernsey Literary and Potato Peel Pie Society [2018 история HDRip] [MVO] killermax2013 Скачать
3 | 0
Фильмы (Blu-ray, BD-Remux, HDDVD) [ 29.22 GB ] Клуб любителей книг и пирогов из картофельных очистков / The Guernsey Literary and Potato Peel Pie Society [2018 история BDRemux 1080p] [MVO] killermax2013 Скачать
1 | 0
Фильмы [HD 720p, 1080p] (Хороший звук DUB, MVO) [ 6.97 GB ] Клуб любителей книг и пирогов из картофельных очистков / The Guernsey Literary and Potato Peel Pie Society [2018 история BDRip 720p] MVO [Jaskier] bober100 Скачать
1 | 0
T Фильмы (мультфильмы) cо спонсором показа (Новинки AVI/MKV) [ 1.46 GB ] Клуб любителей книг и пирогов из картофельных очистков / The Guernsey Literary and Potato Peel Pie Society [2018 история HDRip] MVO [Jaskier] bober100 Скачать
1 | 0


>> Регистрируемся здесь <<






Отзывы и комментарии о схеме читаем и пишем здесь: ---> Отзывы и комментарии о схеме

Новые благодарочки в телеграм довольных пользователей:
скриншот   скриншот   скриншот   скриншот   скриншот
    Дорогой пользователь! Огромная просьба, поблагодарите релизера, оцените раздачу и оставьте свои комментарий, если Вы скачали Клуб любителей книг и пирогов из картофельных очистков через торрент бесплатно! Внесите свою лепту в развитие PiratBit!
    Комментировать посты могут только пользователи прошедшие не сложную регистрацию
    Показать сообщения:    

    Клуб любителей книг и пирогов из картофельных очистков через торрент
    Скачать бесплатно Клуб любителей книг и пирогов из картофельных очистков
    Клуб любителей книг и пирогов из картофельных очистков скачать торрент
    Клуб любителей книг и пирогов из картофельных очистков смотреть онлайн
    Cкачать фильм Клуб любителей книг и пирогов из картофельных очистков бесплатно
    Клуб любителей книг и пирогов из картофельных очистков скачать торрент в хорошем качестве
    Клуб любителей книг и пирогов из картофельных очистков смотреть онлайн бесплатно в хорошем качестве


    Вы не можете начинать темы
    Вы не можете отвечать на сообщения
    Вы не можете редактировать свои сообщения
    Вы не можете удалять свои сообщения
    Вы не можете голосовать в опросах
    Вы не можете прикреплять файлы к сообщениям
    Вы можете скачивать файлы