Ссылка на приватное зеркало всего за 1$. Внимание количество ограничено!!!

iTunes

1+1

iTunes

мы

MV0

1

WEB-DLRip

Джокер

Пифагор

Ведьмак / The Witcher сериал

iTunes

ПШазам

iTunes

Оно 2

iTunes

30
pack

Вам бонус

ВАЖНО

!!Акция!!

Alien_RageХит недели

RePack

Resident Evil 21

ИГРА 18+

pack

RePack

jed

!!Акция!!

Alien_Rage

RePack

fifa19

RePack

Assassins Creed: Odyssey

RePack

NEED FOR SPEED™ PAYBACK

4 сезон

9 сезон

Бесстыжие 9 сезон

Все сериалы

все сериалы на PB.wtf

RePack

FAR CRY 5
  

Малыш Кид / The Kid (Винсент Д’Онофрио) [2019, вестерн, приключения, BDRip 1080p, 60 fps] Дубляж [iTunes] piratbit.cf

Малыш Кид через торрент piratbit.cf

Раздают: 1 [ 0 KB/s ]
Размер: 14.93 GB | Добавлен: 3 мес. 13 д. назад | Торрент скачан:83 раза
Скачать  

04-11-2019 13:23 Малыш Кид Скачать торрент  

Малыш Кид / The Kid««Важно лишь то, что они расскажут, когда тебя не станет»»

Год выпуска: 2019
Страна: США
Жанр: вестерн, приключения
Продолжительность: 02:39:05
Перевод: Дублированный | iTunes
Субтитры: английские
Режиссер: Винсент Д’Онофрио
В ролях:

Джейк Шур (Rio Cutler), Лейла Джордж (Sara Cutler), Крис Пратт (Grant Cutler), Дэйн ДеХаан (Billy «The Kid» Bonney), Итан Хоук (Sheriff Pat Garrett), Чарли Чаппель (Billy Wilson), Клинт Обенчейн (Tom Pickett), Крис Билсма (Charlie Bowdre), Чад Дашнау (Dave Rudabaugh), Бен Дики (Jim East), Тейт Флетчер (Bill Cutler), Хоук Д’Онофрио (Oran Moler)
Описание:
История подростка Рио, который становится невольным свидетелем кровавой войны между легендарным бандитом Дикого Запада Билли Кидом по кличке Малыш Кид и жестоким шерифом Пэтом Гарреттом.
Рейтинг:

MPAA: R - Лицам до 17 лет обязательно присутствие взрослого
Качество: BDRip 1080p
Формат: MKV
Видео: AVC | 1920 x 800 | 59.940 fps | 19.0 Мбит/сек
Аудио #1: AC-3 | 5.1 | 48 kHz | 384 Кбит/сек | 16 bit | Дубляж (iTunes) | RUS |
Аудио #2: DTS-HD MA | 5.1 | 48 kHz | 1509 Кбит/сек | 24 bit | Оригинал | ENG |
Навигация по главам: есть

General
Unique ID : 24857452375981013071752620761121649433 (0x12B35F061FF7B0057DBA3ADCC5197319)
Complete name : D:\2019 Малыш Кид BDRip 1080p 60 fps.mkv
Format : Matroska
Format version : Version 4 / Version 2
File size : 14.9 GiB
Duration : 1h 39mn
Overall bit rate mode : Variable
Overall bit rate : 21.4 Mbps
Movie name : Малыш Кид / The Kid
Encoded date : UTC 2019-07-25 22:18:08
Writing application : mkvmerge v22.0.0 ('At The End Of The World') 64-bit
Writing library : libebml v1.3.5 + libmatroska v1.4.8
DURATION : 01:37:12.832000000
NUMBER_OF_FRAMES : 1097
NUMBER_OF_BYTES : 36647
_STATISTICS_WRITING_APP : mkvmerge v22.0.0 ('At The End Of The World') 64-bit
_STATISTICS_WRITING_DATE_UTC : 2019-07-25 22:18:08
_STATISTICS_TAGS : BPS DURATION NUMBER_OF_FRAMES NUMBER_OF_BYTES
Video #1
ID : 1
Format : AVC
Format/Info : Advanced Video Codec
Format profile : High@L4.1
Format settings, CABAC : Yes
Format settings, ReFrames : 5 frames
Codec ID : V_MPEG4/ISO/AVC
Duration : 1h 39mn
Bit rate : 19.0 Mbps
Nominal bit rate : 18.0 Mbps
Width : 1 920 pixels
Height : 808 pixels
Display aspect ratio : 2.40:1
Frame rate : 59.940 fps
Color space : YUV
Chroma subsampling : 4:2:0
Bit depth : 8 bits
Scan type : Progressive
Bits/(Pixel*Frame) : 0.205
Stream size : 13.3 GiB (89%)
Writing library : x264 core 146 r2538 121396c
Encoding settings : cabac=1 / ref=5 / deblock=1:-2:-2 / analyse=0x3:0x113 / me=umh / subme=9 / psy=1 / psy_rd=1.00:0.25 / mixed_ref=1 / me_range=32 / chroma_me=1 / trellis=2 / 8x8dct=1 / cqm=0 / deadzone=6,6 / fast_pskip=1 / chroma_qp_offset=-4 / threads=12 / lookahead_threads=2 / sliced_threads=0 / nr=0 / decimate=0 / interlaced=0 / bluray_compat=0 / constrained_intra=0 / bframes=3 / b_pyramid=2 / b_adapt=2 / b_bias=0 / direct=3 / weightb=1 / open_gop=0 / weightp=2 / keyint=600 / keyint_min=60 / scenecut=40 / intra_refresh=0 / rc_lookahead=60 / rc=2pass / mbtree=1 / bitrate=18000 / ratetol=1.0 / qcomp=0.80 / qpmin=0 / qpmax=69 / qpstep=4 / cplxblur=20.0 / qblur=0.5 / vbv_maxrate=50000 / vbv_bufsize=50000 / nal_hrd=none / filler=0 / ip_ratio=1.10 / aq=1:0.50
Language : English
Default : Yes
Forced : No
DURATION : 01:39:50.001000000
NUMBER_OF_FRAMES : 359041
NUMBER_OF_BYTES : 13436975965
_STATISTICS_WRITING_APP : mkvmerge v22.0.0 ('At The End Of The World') 64-bit
_STATISTICS_WRITING_DATE_UTC : 2019-07-25 22:18:08
_STATISTICS_TAGS : BPS DURATION NUMBER_OF_FRAMES NUMBER_OF_BYTES
Audio #2
ID : 2
Format : AC-3
Format/Info : Audio Coding 3
Mode extension : CM (complete main)
Format settings, Endianness : Big
Codec ID : A_AC3
Duration : 1h 39mn
Bit rate mode : Constant
Bit rate : 384 Kbps
Channel(s) : 6 channels
Channel positions : Front: L C R, Side: L R, LFE
Sampling rate : 48.0 KHz
Bit depth : 16 bits
Compression mode : Lossy
Stream size : 274 MiB (2%)
Title : Dub | DD 5.1 @ 384 kbps - iTunes
Language : Russian
Default : Yes
Forced : No
Audio #3
ID : 3
Format : DTS
Format/Info : Digital Theater Systems
Format profile : MA / Core
Codec ID : A_DTS
Duration : 1h 39mn
Bit rate mode : Variable
Bit rate : 1 561 Kbps / 1 510 Kbps
Channel(s) : 6 channels
Channel positions : Front: L C R, Side: L R, LFE
Sampling rate : 48.0 KHz
Bit depth : 24 bits
Compression mode : Lossless / Lossy
Title : Original | DTS-HD MA 5.1 @ 3077 kbps
Language : English
Default : No
Forced : No
Text #4
ID : 4
Format : UTF-8
Codec ID : S_TEXT/UTF8
Codec ID/Info : UTF-8 Plain Text
Title : Full
Language : English
Default : No
Forced : No
Text #5
ID : 5
Format : UTF-8
Codec ID : S_TEXT/UTF8
Codec ID/Info : UTF-8 Plain Text
Title : SDH
Language : English
Default : No
Forced : No
Menu
00:00:00.000 : en:Chapter 01
00:07:40.626 : en:Chapter 02
00:16:10.344 : en:Chapter 03
00:24:21.293 : en:Chapter 04
00:31:27.010 : en:Chapter 05
00:40:03.109 : en:Chapter 06
00:48:02.880 : en:Chapter 07
00:56:48.071 : en:Chapter 08
01:04:40.001 : en:Chapter 09
01:12:02.318 : en:Chapter 10
01:20:14.935 : en:Chapter 11
01:27:23.821 : en:Chapter 12
piratbit.cf



Скачать Малыш Кид через торрент https://c.radikal.ru/c04/1911/8e/ec7378c597ee.png Скачать фильм Малыш Кид через торрент бесплантно в хорошем качестве Описание: История подростка Рио, который становится невольным свидетелем кровавой войны между легендарным бандитом Дикого Запада Билли ... 10 10 3
Торрент: Зарегистрирован [2019-11-04 13:23] · скачан: 83 раз
Статус: √ проверено
Размер: 14.93 GB
Как cкачать? Как скачать Малыш Кид через торрент | qTorrent

% Раздел Тема Автор DL S | L
Фильмы 2019-2020 [DVDrip, WEB-DLRip, HDrip] (DUB, MVO) [ 1.42 GB ] Малыш Кид / The Kid [2019 BDRip] - Twi7ter Скачать
24 | 0
Фильмы 2019-2020 [DVDrip, WEB-DLRip, HDrip] (DUB, MVO) [ 1.61 GB ] Малыш Кид / The Kid [2019 BDRip-AVC] Dub - ExKinoRay Enigma2010 Скачать
11 | 2
# Фильмы (Blu-ray, BD-Remux, HDDVD) [ 18.98 GB ] Малыш Кид / The Kid [2019 биография BD Remux ()] Бумер Скачать
1 | 0
Фильмы [HD 720p, 1080p] (Хороший звук DUB, MVO) [ 4.45 GB ] Малыш Кид / The Kid [2019 BDRip 720p] +MVO [HDRezka Studio] bober100 Скачать
1 | 0
Фильмы [HD 720p, 1080p] (Хороший звук DUB, MVO) [ 10.39 GB ] Малыш Кид / The Kid [2019 BDRip 1080p] +MVO [HDRezka Studio] bober100 Скачать
3 | 0
T Фильмы 2019-2020 [DVDrip, WEB-DLRip, HDrip] (DUB, MVO) [ 1.79 GB ] Малыш Кид / The Kid [2019 BDRip-AVC] MVO [HDRezka Studio] - ExKinoRay Enigma2010 Скачать
5 | 6
Фильмы 2019-2020 [DVDrip, WEB-DLRip, HDrip] (DUB, MVO) [ 2.13 GB ] Малыш Кид / The Kid [2019 BDRip-AVC] bober100 Скачать
1 | 0

28-11-2019 20:33  

Отключить всю рекламу на сайте

04-11-2019 17:09 Малыш Кид Скачать торрент  

очень жду в 4 Кpiratbit.cf



    Дорогой пользователь! Огромная просьба, поблагодарите релизера, оцените раздачу и оставьте свои комментарий, если Вы скачали Малыш Кид через торрент бесплатно! Внесите свою лепту в развитие PiratBit!
    Комментировать посты могут только пользователи прошедшие не сложную регистрацию
    Показать сообщения:    

    Малыш Кид через торрент
    Скачать бесплатно Малыш Кид
    Малыш Кид скачать торрент
    Малыш Кид смотреть онлайн
    Cкачать фильм Малыш Кид бесплатно
    Малыш Кид скачать торрент в хорошем качестве
    Малыш Кид смотреть онлайн бесплатно в хорошем качестве


    Вы не можете начинать темы
    Вы не можете отвечать на сообщения
    Вы не можете редактировать свои сообщения
    Вы не можете удалять свои сообщения
    Вы не можете голосовать в опросах
    Вы не можете прикреплять файлы к сообщениям
    Вы можете скачивать файлы