Ссылка на приватное зеркало всего за 1$. Внимание количество ограничено!!!

OK

1+1

iTunes

мы

OK

1

WEB-DLRip

Джокер

Пифагор

Ведьмак / The Witcher сериал

Лицензия

ПШазам

ОК

Оно 2

iTunes

30
pack

Вам бонус

ВАЖНО

!!Акция!!

Alien_RageХит недели

RePack

Resident Evil 21

ИГРА 18+

pack

RePack

jed

RePack

fifa19

RePack

Assassins Creed: Odyssey

RePack

NEED FOR SPEED™ PAYBACK

4 сезон

9 сезон

Бесстыжие 9 сезон

Все сериалы

все сериалы на PB.wtf

RePack

FAR CRY 5
  

Семейка Аддамс / The Addams Family (Грег Тирнан, Конрад Вернон) [2019, мультфильм, ужасы, фэнтези, комедия, семейный, WEB-DL 1080p] DUB [Онлайн кинотеатр] piratbit.cf

Семейка Аддамс через торрент piratbit.cf

Раздают: 101 [ 255 KB/s ] Качают: 3 [ 0 KB/s ]
Размер: 3.51 GB | Добавлен: 28 д. назад | Торрент скачан:1816 раз
Скачать  

04-11-2019 17:23 Семейка Аддамс Скачать торрент  

Семейка Аддамс / The Addams Family
Год выпуска: 2019
Страна: Канада, США
Студия: Metro-Goldwyn-Mayer (MGM), Cinesite Animation
Жанр: мультфильм, ужасы, фэнтези, комедия, семейный
Продолжительность: 01:27:26
Перевод: Дублированный | Онлайн кинотеатр
Субтитры: Английские

Режиссер: Грег Тирнан, Конрад Вернон

rating

В ролях: Оскар Айзек, Шарлиз Терон, Хлоя Грейс Морец, Финн Вулфард, Ник Кролл, Снуп Догг, Бетт Мидлер, Эллисон Дженни, Мартин Шорт, Кэтрин О Хара

Описание: Папа любит долгие прогулки в ненастную погоду. Мама считает, что черный цвет самый яркий. У детей кладбище - любимая площадка для игр. Бабушка выпивает пару капель яда перед сном. Вы все еще думаете, что ваши родственники странные? Знакомьтесь - семейка Аддамс.

Качество: WEB-DL 1080p
Формат: MKV

Видео: MPEG-4 AVC, 1920x1080, 5167 Kbit/s, 23.976 fps
Аудио #01: 48 kHz, AC3, 2.0, 192 Kbps | Дублированный | RUS |
Аудио #02: 48 kHz, AC3, 5.1, 384 Kbps | Оригинал | ENG |
скриншот  скриншот  скриншот  скриншот  скриншот  

General
Unique ID : 56511627482638427070681768475493663588 (0x2A83BE59C8915E0FD323530FE1140364)
Complete name : F:Video111The.Addams.Family.2019.WEB-DL.1080p.seleZen.mkv
Format : Matroska
Format version : Version 4
File size : 3.51 GiB
Duration : 1 h 27 min
Overall bit rate : 5 745 kb/s
Movie name : The Addams Family 2019 from селезень
Encoded date : UTC 2019-12-24 13:42:42
Writing application : mkvmerge v40.0.0 ('Old Town Road + Pony') 64-bit
Writing library : libebml v1.3.9 + libmatroska v1.5.2

Video
ID : 1
Format : AVC
Format/Info : Advanced Video Codec
Format profile : High@L4
Format settings : CABAC / 2 Ref Frames
Format settings, CABAC : Yes
Format settings, Reference : 2 frames
Codec ID : V_MPEG4/ISO/AVC
Duration : 1 h 27 min
Bit rate : 5 167 kb/s
Width : 1 920 pixels
Height : 1 080 pixels
Display aspect ratio : 16:9
Frame rate mode : Constant
Frame rate : 23.976 (24000/1001) FPS
Color space : YUV
Chroma subsampling : 4:2:0
Bit depth : 8 bits
Scan type : Progressive
Bits/(Pixel*Frame) : 0.104
Stream size : 3.16 GiB (90%)
Writing library : x264 core 155 r2901 7d0ff22
Language : English
Default : Yes
Forced : No
Color range : Limited
Color primaries : BT.709
Transfer characteristics : BT.709
Matrix coefficients : BT.709

Audio #1
ID : 2
Format : AC-3
Format/Info : Audio Coding 3
Commercial name : Dolby Digital
Codec ID : A_AC3
Duration : 1 h 27 min
Bit rate mode : Constant
Bit rate : 192 kb/s
Channel(s) : 2 channels
Channel layout : L R
Sampling rate : 48.0 kHz
Frame rate : 31.250 FPS (1536 SPF)
Bit depth : 16 bits
Compression mode : Lossy
Stream size : 120 MiB (3%)
Title : Dub [Online cin.]
Language : Russian
Service kind : Complete Main
Default : Yes
Forced : Yes

Audio #2
ID : 3
Format : AC-3
Format/Info : Audio Coding 3
Commercial name : Dolby Digital
Codec ID : A_AC3
Duration : 1 h 27 min
Bit rate mode : Constant
Bit rate : 384 kb/s
Channel(s) : 6 channels
Channel layout : L R C LFE Ls Rs
Sampling rate : 48.0 kHz
Frame rate : 31.250 FPS (1536 SPF)
Bit depth : 16 bits
Compression mode : Lossy
Stream size : 240 MiB (7%)
Title : Original
Language : English
Service kind : Complete Main
Default : No
Forced : No

Text
ID : 4
Format : UTF-8
Codec ID : S_TEXT/UTF8
Codec ID/Info : UTF-8 Plain Text
Duration : 1 h 25 min
Bit rate : 69 b/s
Count of elements : 1436
Stream size : 43.3 KiB (0%)
Title : Full
Language : English
Default : No
Forced : No

piratbit.cf



Скачать Семейка Аддамс через торрент https://a.radikal.ru/a39/1912/77/61e3b03babfb.jpg Скачать фильм Семейка Аддамс через торрент бесплантно в хорошем качестве Описание: Папа любит долгие прогулки в ненастную погоду. Мама считает, что черный цвет самый яркий. У детей кладбище - любимая площадка для ... 10 10 58
Info! Золотая раздача, скачанное не засчитывается.
Торрент: Зарегистрирован [2019-12-24 14:16] · скачан: 1 816 раз
Статус: √ проверено
Размер: 3.51 GB
Как cкачать? Как скачать Семейка Аддамс через торрент | qTorrent

% Раздел Тема Автор DL S | L
Иностранные мультфильмы [ 1.42 GB ] Семейка Аддамс / The Addams Family [2019 мультфильм BDRip] - [Онлайн кинотеатр WETY] Twi7ter Скачать
51 | 19
Зарубежные Мультфильмы (BDRip 1080p, 720p, Blu-ray, BD-Remux) [ 4.58 GB ] Семейка Аддамс / The Addams Family [2019 мультфильм BDRip 720p] 2xDUB [Онлайн кинотеатр WETY] bober100 Скачать
21 | 1
Зарубежные Мультфильмы (BDRip 1080p, 720p, Blu-ray, BD-Remux) [ 7.61 GB ] Семейка Аддамс / The Addams Family [2019 мультфильм BDRip 1080p] 2xDUB [Онлайн кинотеатр WETY] bober100 Скачать
15 | 2
T Иностранные мультфильмы [ 2.02 GB ] Семейка Аддамс / The Addams Family [2019 мультфильм BDRip-AVC] DUB [Онлайн кинотеатр WETY] - ExKinoRay Enigma2010 Скачать
294 | 21
Иностранные мультфильмы [ 1.57 GB ] Семейка Аддамс / The Addams Family [2019 мультфильм WEB-DLRip-AVC] DUB [Онлайн кинотеатр] - ExKinoRay Enigma2010 Скачать
388 | 10
T Иностранные мультфильмы [ 1.46 GB ] Семейка Аддамс / The Addams Family [2019 мультфильм BDRip] DUB [Онлайн кинотеатр] bober100 Скачать
10 | 0
Фильмы до 2000 г. [ 1.46 GB ] Семейка Аддамс / The Addams Family [1991 BDRip] MVO dexter lex Скачать
2 | 0


Последний раз редактировалось: bober100 (2019-12-24 14:16), всего редактировалось 1 раз

28-11-2019 20:33  

Отключить всю рекламу на сайте

    Дорогой пользователь! Огромная просьба, поблагодарите релизера, оцените раздачу и оставьте свои комментарий, если Вы скачали Семейка Аддамс через торрент бесплатно! Внесите свою лепту в развитие PiratBit!
    Комментировать посты могут только пользователи прошедшие не сложную регистрацию
    Показать сообщения:    

    Семейка Аддамс через торрент
    Скачать бесплатно Семейка Аддамс
    Семейка Аддамс скачать торрент
    Семейка Аддамс смотреть онлайн
    Cкачать фильм Семейка Аддамс бесплатно
    Семейка Аддамс скачать торрент в хорошем качестве
    Семейка Аддамс смотреть онлайн бесплатно в хорошем качестве


    Вы не можете начинать темы
    Вы не можете отвечать на сообщения
    Вы не можете редактировать свои сообщения
    Вы не можете удалять свои сообщения
    Вы не можете голосовать в опросах
    Вы не можете прикреплять файлы к сообщениям
    Вы можете скачивать файлы