Ссылка на приватное зеркало всего за 1$. Внимание количество ограничено!!!

OK

1+1

iTunes

мы

OK

1

WEB-DLRip

Джокер

Пифагор

Ведьмак / The Witcher сериал

iTunes

ПШазам

ОК

Оно 2

iTunes

30
pack

Вам бонус

ВАЖНО

!!Акция!!

Alien_RageХит недели

RePack

Resident Evil 21

ИГРА 18+

pack

RePack

jed

RePack

fifa19

RePack

Assassins Creed: Odyssey

RePack

NEED FOR SPEED™ PAYBACK

4 сезон

9 сезон

Бесстыжие 9 сезон

Все сериалы

все сериалы на PB.wtf

RePack

FAR CRY 5
  

Навстречу тьме / Под покровом ночи / Into the Dark / Сезон: 2 / Серии: 1-4 из 12 (Пол Дэвис, Адам Мэйсон, Патрик Люссье) [2019, Ужасы, триллер, WEB-DLRip] MVO [TVShows] piratbit.cf

Навстречу тьме через торрент piratbit.cf

Качают: 1 [ 0 KB/s ]
Размер: 5 GB | Добавлен: 14 д. назад | Торрент скачан:3 раза
Скачать  

08-11-2019 11:05 Навстречу тьме Скачать торрент  

Навстречу тьме | Под покровом ночи | Into the Dark Год выпуска: 2019
Страна: США
Жанр: ужасы, триллер
Продолжительность: ~ 01:20:00
Перевод: Профессиональный (многоголосый закадровый) | TVShows
Субтитры: отсутствуют

Режиссёр: Пол Дэвис, Адам Мэйсон, Патрик Люссье

В ролях: Аврора Перрино, Дайан Селлерс, Кэти Уилсон, Том Бейтман, Няша Хатенди, Дермот Малруни, Сьюки Уотерхаус, Стефани Беатриз, Израэль Бруссар, Клейн Кроуфорд и др.

Описание: Сериал представляет собой антологию рассказов, где каждый следующий эпизод - это отдельная пугающая история, основанная на празднике того месяца, в котором она будет выпущена на экраны. Вниманию зрителя предлагаются пугающие сюжеты, связанные с Хэллоуином, Днем благодарения, Рождеством, Новым годом и даже с Днем святого Валентина, погружающие в истории жестоких маньяков и убийц, порой принимающих самые странные обличья, чтобы безжалостно расправляться со своими жертвами, которым не повезло оказаться на их пути.



Качество: WEB-DLRip
Формат: AVI

Видео: XVID, 720x304, 23.976 fps, 1800 kbps avg, 0.34 bit/pixel
Аудио Rus: AC3, 48.0 KHz, 6 channels, 384 kbps


Реклама отсутствует
General
Complete name : G:\Навстречу тьме (Сезон 2) TVShows\Into.the.Dark.S02E01.WEB-DLRip.RGzsRutracker.Celta88.avi
Format : AVI
Format/Info : Audio Video Interleave
File size : 1.23 GiB
Duration : 1 h 20 min
Overall bit rate : 2 193 kb/s
Writing application : VirtualDubMod 1.5.10.2 (build 2540/release)
Writing library : VirtualDubMod build 2540/release

Video
ID : 0
Format : MPEG-4 Visual
Format profile : Advanced Simple@L5
Format settings, BVOP : 1
Format settings, QPel : No
Format settings, GMC : No warppoints
Format settings, Matrix : Custom
Codec ID : XVID
Codec ID/Hint : XviD
Duration : 1 h 20 min
Bit rate : 1 800 kb/s
Width : 720 pixels
Height : 304 pixels
Display aspect ratio : 2.40:1
Frame rate : 23.976 (24000/1001) FPS
Color space : YUV
Chroma subsampling : 4:2:0
Bit depth : 8 bits
Scan type : Progressive
Compression mode : Lossy
Bits/(Pixel*Frame) : 0.343
Stream size : 1.01 GiB (82%)
Writing library : XviD 67

Audio
ID : 1
Format : AC-3
Format/Info : Audio Coding 3
Mode extension : CM (complete main)
Format settings, Endianness : Big
Codec ID : 2000
Duration : 1 h 20 min
Bit rate mode : Constant
Bit rate : 384 kb/s
Channel(s) : 6 channels
Channel positions : Front: L C R, Side: L R, LFE
Sampling rate : 48.0 kHz
Frame rate : 31.250 FPS (1536 spf)
Bit depth : 16 bits
Compression mode : Lossy
Stream size : 221 MiB (18%)
Alignment : Split accross interleaves
Interleave, duration : 42 ms (1.00 video frame)
Interleave, preload duratio : 500 ms
Внимание! Раздача ведётся путём добавления новых серий; при каждом добавлении создаётся новый торрент.
Чтобы начать докачку новой серии, пользователям необходимо сделать следующее:
1. Остановить скачивание.
2. Удалить старый торрент у себя из клиента (старые серии удалять не надо).
3. Скачать новый торрент и запустить его у себя в клиенте вместо старого, при этом указать клиенту путь в старую папку куда и должно происходить скачивание новых серий.
Ваш клиент при этом должен произвести хеширование (проверку) старой папки (если не производит сам - помогите ему сделать это), и будет докачивать только те серии которых у вас ещё нет. Старые серии при этом не удаляются, а продолжают раздаваться!
Eсли вы уже удалили старые серии, то предотвратить повторную закачку старых серий можно, отжав галочку в соответствующих местах при запуске нового торрента.
piratbit.cf



Скачать Навстречу тьме через торрент https://i89.fastpic.ru/big/2019/1013/35/53bbe8817877321c1f478a85f6251a35.png Скачать фильм Навстречу тьме через торрент бесплантно в хорошем качестве Описание: Сериал представляет собой антологию рассказов, где каждый следующий эпизод - это отдельная пугающая история, основанная на ... 10 10 3
Торрент: Зарегистрирован [2020-01-14 10:55] · скачан: 3 раз
Статус: √ проверено
Размер: 5 GB
Как cкачать? Как скачать Навстречу тьме через торрент | qTorrent

% Раздел Тема Автор DL S | L
Зарубежные сериалы [ 9.53 GB ] Навстречу тьме / Под покровом ночи / Into the Dark / Сезон: 2 / Серии: 1-4 из 12 [2019 WEB-DL 1080p] MVO [TVShows] bober100 Скачать
2 | 0
Зарубежные сериалы [ 4.71 GB ] Навстречу тьме / Под покровом ночи / Into the Dark / Сезон: 2 / Серии: 1-4 из 12 [2019 WEB-DL 720p] MVO [TVShows] bober100 Скачать
1 | 0

28-11-2019 20:33  

Отключить всю рекламу на сайте

    Дорогой пользователь! Огромная просьба, поблагодарите релизера, оцените раздачу и оставьте свои комментарий, если Вы скачали Навстречу тьме через торрент бесплатно! Внесите свою лепту в развитие PiratBit!
    Комментировать посты могут только пользователи прошедшие не сложную регистрацию
    Показать сообщения:    

    Навстречу тьме через торрент
    Скачать бесплатно Навстречу тьме
    Навстречу тьме скачать торрент
    Навстречу тьме смотреть онлайн
    Cкачать фильм Навстречу тьме бесплатно
    Навстречу тьме скачать торрент в хорошем качестве
    Навстречу тьме смотреть онлайн бесплатно в хорошем качестве


    Вы не можете начинать темы
    Вы не можете отвечать на сообщения
    Вы не можете редактировать свои сообщения
    Вы не можете удалять свои сообщения
    Вы не можете голосовать в опросах
    Вы не можете прикреплять файлы к сообщениям
    Вы можете скачивать файлы