Ссылка на приватное зеркало всего за 1$. Внимание количество ограничено!!!

OK

1+1

iTunes

мы

OK

1

WEB-DLRip

Джокер

Пифагор

Ведьмак / The Witcher сериал

iTunes

ПШазам

ОК

Оно 2

iTunes

30
pack

Вам бонус

ВАЖНО

!!Акция!!

Alien_RageХит недели

RePack

Resident Evil 21

ИГРА 18+

pack

RePack

jed

RePack

fifa19

RePack

Assassins Creed: Odyssey

RePack

NEED FOR SPEED™ PAYBACK

4 сезон

9 сезон

Бесстыжие 9 сезон

Все сериалы

все сериалы на PB.wtf

RePack

FAR CRY 5
  

Бесстыжие / Бесстыдники / Shameless (US) / Сезон: 10 / Серия: 1-11 из 12 (Марк Майлод, Кристофер Чулак, Джон Уэллс) [2019, Драма, комедия, WEB-DL 1080p] MVO [AlexFilm] piratbit.cf

Бесстыжие через торрент piratbit.cf

Раздают: 1 [ 1 MB/s ] Качают: 5 [ 0 KB/s ]
Размер: 45.69 GB | Добавлен: 1 д. 10 ч. назад | Торрент скачан:1 раз
Скачать  

11-11-2019 15:12 Бесстыжие Скачать торрент  

Бесстыжие | Бесстыдники | Shameless (US) Год выпуска: 2019
Страна: США
Жанр: Драма, комедия
Продолжительность: ~00:55:00
Перевод: Профессиональный (многоголосый закадровый) | AlexFilm
Субтитры: Русские (Full |«FOCS»|, английские (SDH)

Режиссёр: Марк Майлод, Кристофер Чулак, Джон Уэллс

В ролях: Уильям Х. Мэйси, Камерон Монахэн, Джереми Аллен Уайт, Эмма Кинни, Итэн Каткоски, Блейк Александр Джонсон, Бреннан Кэйн Джонсон, Шанола Хэмптон, Стив Хоуи, Джоан Кьюсак, Ноэль Фишер, Эмма Гринвелл, Джэйк Макдорман и др.

Описание: Американский ремейк британского сериала, повествующий о взбалмошной многодетной семье Галлахеров и их соседях, которые веселятся, попадают в самые невероятные ситуации и пытаются выжить в этом мире всеми возможными средствами, но при этом как можно меньше работая.



Качество: WEB-DL 1080p
Формат: MKV

Видео: AVC, 1920x1080 (16:9), 23.976 fps, ~ 10 Mbps
Аудио №1: AC3, 48,0 kHz, 2 ch, 192 kbps | AlexFilm
Аудио №2: AC3, 48,0 kHz, 6 ch, 640 kbps | Original


Реклама: Отсутствует

Исходник: Shameless.US.S10.1080p.AMZN.WEB-DL.DDP5.1.x264-NTb
01. We Few, We Lucky Few, We Band Of Gallaghers! / Нас немного, мы счастливы, мы банда Галлагеров!
Complete name : D:\Shameless_(s10)_1080p\Shameless.US.2019.S10E01.We.Few.We.Lucky.Few.We.Band.of.Gallaghers.1080p.AMZN.WEB-DL.DD5.1.x264-NTb_EniaHD.mkv
Format : Matroska
Format version : Version 2
File size : 4.26 GiB
Duration : 56 min 58 s
Overall bit rate : 10.7 Mb/s
Encoded date : UTC 2019-11-11 13:38:54
Writing application : mkvmerge v4.9.1 ('Ich will') сборка от Jul 11 2011 23:53:15
Writing library : libebml v1.2.1 + libmatroska v1.1.1

Video
ID : 1
Format : AVC
Format/Info : Advanced Video Codec
Format profile : High@L4
Format settings : CABAC / 4 Ref Frames
Format settings, CABAC : Yes
Format settings, Reference : 4 frames
Codec ID : V_MPEG4/ISO/AVC
Duration : 56 min 58 s
Bit rate mode : Constant
Bit rate : 10 000 kb/s
Width : 1 920 pixels
Height : 1 080 pixels
Display aspect ratio : 16:9
Frame rate mode : Constant
Frame rate : 23.976 (24000/1001) FPS
Color space : YUV
Chroma subsampling : 4:2:0
Bit depth : 8 bits
Scan type : Progressive
Bits/(Pixel*Frame) : 0.201
Stream size : 3.85 GiB (90%)
Title : Release by EniaHD
Default : Yes
Forced : No
Color range : Limited
Color primaries : BT.709
Transfer characteristics : BT.709
Matrix coefficients : BT.709

Audio #1
ID : 2
Format : AC-3
Format/Info : Audio Coding 3
Commercial name : Dolby Digital
Codec ID : A_AC3
Duration : 56 min 58 s
Bit rate mode : Constant
Bit rate : 192 kb/s
Channel(s) : 2 channels
Channel layout : L R
Sampling rate : 48.0 kHz
Frame rate : 31.250 FPS (1536 SPF)
Bit depth : 16 bits
Compression mode : Lossy
Stream size : 78.2 MiB (2%)
Title : AlexFilm
Language : Russian
Service kind : Complete Main
Default : Yes
Forced : No

Audio #2
ID : 3
Format : AC-3
Format/Info : Audio Coding 3
Commercial name : Dolby Digital
Codec ID : A_AC3
Duration : 56 min 58 s
Bit rate mode : Constant
Bit rate : 640 kb/s
Channel(s) : 6 channels
Channel layout : L R C LFE Ls Rs
Sampling rate : 48.0 kHz
Frame rate : 31.250 FPS (1536 SPF)
Bit depth : 16 bits
Compression mode : Lossy
Stream size : 261 MiB (6%)
Language : English
Service kind : Complete Main
Default : No
Forced : No

Text #1
ID : 4
Format : UTF-8
Codec ID : S_TEXT/UTF8
Codec ID/Info : UTF-8 Plain Text
Title : Full |FOCS|
Language : Russian
Default : No
Forced : No

Text #2
ID : 5
Format : UTF-8
Codec ID : S_TEXT/UTF8
Codec ID/Info : UTF-8 Plain Text
Title : SDH
Language : English
Default : No
Forced : No
При каждом добавлении создаётся новый торрент. Чтобы начать докачку новой серии, пользователям необходимо сделать следующее:
- остановить скачивание;
- удалить старый торрент у себя из клиента (старые серии удалять не надо);
- скачать новый торрент и запустить его у себя в клиенте вместо старого, при этом указать клиенту путь в старую папку, куда и должно происходить скачивание новых серий.
piratbit.cf



Скачать Бесстыжие через торрент https://b.radikal.ru/b10/1911/dc/a272607eedd2.png Скачать фильм Бесстыжие через торрент бесплантно в хорошем качестве Описание: Американский ремейк британского сериала, повествующий о взбалмошной многодетной семье Галлахеров и их соседях, которые веселятся, ... 9.7 10 11
Торрент: Зарегистрирован [2020-01-24 16:50] · скачан: 1 раз
Статус: √ проверено
Размер: 45.69 GB
Как cкачать? Как скачать Бесстыжие через торрент | qTorrent

% Раздел Тема Автор DL S | L
Зарубежные сериалы [ 16.8 GB ] Бесстыдники / Бесстыжие / Shameless / Cезон 1 [2011 HDTV 720p] fallen_poet Скачать
1 | 1
Зарубежные сериалы [ 7.85 GB ] Бесстыжие / Бесстыдники / Shameless / Сезон: 10 / Серии: 1-10 из 12 [2019 WEB-DLRip] MVO [AlexFilm] bober100 Скачать
8 | 4
Зарубежные сериалы [ 25.8 GB ] Бесстыжие / Бесстыдники / Shameless / Сезон: 10 / Серии: 1-11 из 12 [2019 WEB-DL 720p] MVO [AlexFilm] bober100 Скачать
2 | 7
Зарубежные сериалы [ 54.15 GB ] Бесстыжие / Бесстыдники / Shameless / Сезон: 9 / Серии: 1-14 из 14 [2018 WEB-DL 1080p] MVO [AlexFilm] bober100 Скачать
2 | 0
Зарубежные сериалы [ 25.49 GB ] Бесстыжие / Бесстыдники / Shameless / Сезон: 9 / Серии: 1-14 из 14 [2018 WEB-DL 720p] MVO [AlexFilm] bober100 Скачать
2 | 0
Зарубежные сериалы [ 9.3 GB ] Бесстыжие / Бесстыдники / Shameless / Сезон: 9 / Серии: 1-14 из 14 [2018 WEB-DLRip] MVO [AlexFilm] bober100 Скачать
5 | 0
Зарубежные сериалы [ 48.24 GB ] Бесстыжие / Бесстыдники / Shameless / Сезон: 6 / Серии: 1-12 из 12 [2016 HDTVRip 1080p] MVO [AlexFilm] bober100 Скачать
1 | 0


Последний раз редактировалось: bober100 (2020-01-24 16:50), всего редактировалось 1 раз

28-11-2019 20:33  

Отключить всю рекламу на сайте

22-01-2020 19:10 Бесстыжие Скачать торрент  

Доброго времени суток. Когда выйдет 11 серия со озвучкой алексов?piratbit.cf



    Дорогой пользователь! Огромная просьба, поблагодарите релизера, оцените раздачу и оставьте свои комментарий, если Вы скачали Бесстыжие через торрент бесплатно! Внесите свою лепту в развитие PiratBit!
    Комментировать посты могут только пользователи прошедшие не сложную регистрацию
    Показать сообщения:    

    Бесстыжие через торрент
    Скачать бесплатно Бесстыжие
    Бесстыжие скачать торрент
    Бесстыжие смотреть онлайн
    Cкачать фильм Бесстыжие бесплатно
    Бесстыжие скачать торрент в хорошем качестве
    Бесстыжие смотреть онлайн бесплатно в хорошем качестве


    Вы не можете начинать темы
    Вы не можете отвечать на сообщения
    Вы не можете редактировать свои сообщения
    Вы не можете удалять свои сообщения
    Вы не можете голосовать в опросах
    Вы не можете прикреплять файлы к сообщениям
    Вы можете скачивать файлы