Ссылка на приватное зеркало всего за 1$. Внимание количество ограничено!!!

OK

1+1

iTunes

мы

OK

1

WEB-DLRip

Джокер

Пифагор

Ведьмак / The Witcher сериал

Лицензия

ПШазам

ОК

Оно 2

iTunes

30
pack

Вам бонус

ВАЖНО

!!Акция!!

Alien_RageХит недели

RePack

Resident Evil 21

ИГРА 18+

pack

RePack

jed

RePack

fifa19

RePack

Assassins Creed: Odyssey

RePack

NEED FOR SPEED™ PAYBACK

4 сезон

9 сезон

Бесстыжие 9 сезон

Все сериалы

все сериалы на PB.wtf

RePack

FAR CRY 5
  

Секс в другом городе: Поколение Q / The L Word: Generation Q / Сезон: 1 / Серии: 1-6 из 8 (Сара Пиа Андерсон, Стеф Грин, Эллисон Лидди) [2019, драма, мелодрама, WEB-DL 1080p] MVO [TVShows] piratbit.cf

Секс в другом городе: Поколение Q через торрент piratbit.cf

Раздают: 3 [ 0 KB/s ] Качают: 3 [ 0 KB/s ]
Размер: 21.47 GB | Добавлен: 8 д. назад | Торрент скачан:2 раза
Скачать  

11-12-2019 07:57 Секс в другом городе: Поколение Q Скачать торрент  

Секс в другом городе: Поколение Q / The L Word: Generation Q
Год выпуска: 2019
Студия: Captivate Entertainment, Imperative Entertainment, Pioneer Stilking Films
Страна: США
Жанр: драма, мелодрама
Продолжительность: ~ 00:43:00 серия
Перевод: Профессиональный (многоголосый) | TVShows
Субтитры: Английские

Режиссер: Сара Пиа Андерсон, Стеф Грин, Эллисон Лидди

rating


В ролях: Дженнифер Билз, Лейша Хейли, Кэтрин Менниг, Арьенн Мэнди, Сепиде Моафи, Лео Шенг, Жаклин Тобони, Росанни Зайас, Стефани Аллен, Брайан Майкл и др.

Описание: Шоу рассказывает, как сложились судьбы Бетти, Элис и Шейн, а также знакомит с новыми девушками. В основе сюжета — женщины нетрадиционной сексуальной ориентации и их взаимоотношения с друзьями, коллегами, семьями и возлюбленными.

Качество: WEB-DL 1080p
Формат: | X264 | MKV |

Видео: MPEG-4 AVC, 1920x1080, 23.976 fps, ~8764 kbps
Аудио 1: Русский, AC3, 48 kHz, 6 ch, 384 kbps
Аудио 2: Английский, E-AC3, 48 kHz, 6 ch, 640 kbps
скриншот  скриншот  скриншот  скриншот  

General
Unique ID : 86697196057123011110543978001892329486 (0x413945C8FCE8F2B2F2ED0A7DD143480E)
Complete name : The.L.Word.Generation.Q.S01E01.1080p.TVShows.mkv
Format : Matroska
Format version : Version 4
File size : 3.74 GiB
Duration : 54 min 37 s
Overall bit rate : 9 790 kb/s
Encoded date : UTC 2019-12-10 12:39:57
Writing application : mkvmerge v33.1.0 ('Primrose') 64-bit
Writing library : libebml v1.3.7 + libmatroska v1.5.0

Video
ID : 1
Format : AVC
Format/Info : Advanced Video Codec
Format profile : High@L4
Format settings : CABAC / 4 Ref Frames
Format settings, CABAC : Yes
Format settings, Reference frames : 4 frames
Codec ID : V_MPEG4/ISO/AVC
Duration : 54 min 37 s
Bit rate mode : Constant
Bit rate : 8 764 kb/s
Nominal bit rate : 10 000 kb/s
Width : 1 920 pixels
Height : 1 080 pixels
Display aspect ratio : 16:9
Frame rate mode : Constant
Frame rate : 23.976 (24000/1001) FPS
Color space : YUV
Chroma subsampling : 4:2:0
Bit depth : 8 bits
Scan type : Progressive
Bits/(Pixel*Frame) : 0.176
Stream size : 3.34 GiB (90%)
Default : Yes
Forced : No
Color range : Limited
Color primaries : BT.709
Transfer characteristics : BT.709
Matrix coefficients : BT.709

Audio #1
ID : 2
Format : AC-3
Format/Info : Audio Coding 3
Commercial name : Dolby Digital
Codec ID : A_AC3
Duration : 54 min 37 s
Bit rate mode : Constant
Bit rate : 384 kb/s
Channel(s) : 6 channels
Channel layout : L R C LFE Ls Rs
Sampling rate : 48.0 kHz
Frame rate : 31.250 FPS (1536 SPF)
Compression mode : Lossy
Stream size : 150 MiB (4%)
Title : TVShows
Language : Russian
Service kind : Complete Main
Default : Yes
Forced : Yes

Audio #2
ID : 3
Format : E-AC-3
Format/Info : Enhanced AC-3
Commercial name : Dolby Digital Plus
Codec ID : A_EAC3
Duration : 54 min 37 s
Bit rate mode : Constant
Bit rate : 640 kb/s
Channel(s) : 6 channels
Channel layout : L R C LFE Ls Rs
Sampling rate : 48.0 kHz
Frame rate : 31.250 FPS (1536 SPF)
Compression mode : Lossy
Delay relative to video : 18 ms
Stream size : 250 MiB (7%)
Title : Original
Language : English
Service kind : Complete Main
Default : No
Forced : No

Text
ID : 4
Format : UTF-8
Codec ID : S_TEXT/UTF8
Codec ID/Info : UTF-8 Plain Text
Duration : 53 min 15 s
Bit rate : 91 b/s
Count of elements : 1182
Stream size : 35.6 KiB (0%)
Title : English
Language : English
Default : No
Forced : No

Когда раздача ведётся путём добавления новых серий, при каждом добавлении создётся новый торрент. Чтобы начать докачку новой серии, пользователям необходимо сделать следующее:
(1) остановить скачивание,
(2) удалить старый торрент у себя из клиента (старые серии удалять не надо),
(3) скачать новый торрент и запустить его у себя в клиенте вместо старого, при этом указать клиенту путь в старую папку, куда и должно происходить скачивание новых серий.
Ваш клиент при этом должен произвести хеширование (проверку) старой папки (если не производит сам - помогите ему сделать это), и будет докачивать только те серии, которых у вас ещё нет. Старые серии при этом не удаляются, а продолжают раздаваться!
Eсли вы уже удалили старые серии, то предотвратить повторную закачку старых серий можно, отжав галочку в соответсвующих местах при запуске нового торрента. По возможности, желательно не удалять старые серии как можно дольше, чтобы релизёр не столько продолжал раздавать старые серии, а смог сконцентрироваться на новых.
piratbit.cf



Скачать Секс в другом городе: Поколение Q через торрент https://i111.fastpic.ru/big/2019/1210/ab/b9b252b75bad4ba42c6811792318cbab.jpg Скачать фильм Секс в другом городе: Поколение Q через торрент бесплантно в хорошем качестве Описание: Шоу рассказывает, как сложились судьбы Бетти, Элис и Шейн, а также знакомит с новыми девушками. В основе сюжета — женщины ... 6.8 10 6
Торрент: Зарегистрирован [2020-01-14 10:18] · скачан: 2 раз
Статус: √ проверено
Размер: 21.47 GB
Как cкачать? Как скачать Секс в другом городе: Поколение Q через торрент | qTorrent

28-11-2019 20:33  

Отключить всю рекламу на сайте

    Дорогой пользователь! Огромная просьба, поблагодарите релизера, оцените раздачу и оставьте свои комментарий, если Вы скачали Секс в другом городе: Поколение Q через торрент бесплатно! Внесите свою лепту в развитие PiratBit!
    Комментировать посты могут только пользователи прошедшие не сложную регистрацию
    Показать сообщения:    

    Секс в другом городе: Поколение Q через торрент
    Скачать бесплатно Секс в другом городе: Поколение Q
    Секс в другом городе: Поколение Q скачать торрент
    Секс в другом городе: Поколение Q смотреть онлайн
    Cкачать фильм Секс в другом городе: Поколение Q бесплатно
    Секс в другом городе: Поколение Q скачать торрент в хорошем качестве
    Секс в другом городе: Поколение Q смотреть онлайн бесплатно в хорошем качестве


    Вы не можете начинать темы
    Вы не можете отвечать на сообщения
    Вы не можете редактировать свои сообщения
    Вы не можете удалять свои сообщения
    Вы не можете голосовать в опросах
    Вы не можете прикреплять файлы к сообщениям
    Вы можете скачивать файлы