Ссылка на приватное зеркало всего за 1$. Внимание количество ограничено!!!

OK

1+1

iTunes

мы

OK

1

WEB-DLRip

Джокер

Пифагор

Ведьмак / The Witcher сериал

iTunes

ПШазам

ОК

Оно 2

iTunes

30
pack

Вам бонус

ВАЖНО

!!Акция!!

Alien_RageХит недели

RePack

Resident Evil 21

ИГРА 18+

pack

RePack

jed

RePack

fifa19

RePack

Assassins Creed: Odyssey

RePack

NEED FOR SPEED™ PAYBACK

4 сезон

9 сезон

Бесстыжие 9 сезон

Все сериалы

все сериалы на PB.wtf

RePack

FAR CRY 5
  

Angry Birds 2 в кино / The Angry Birds Movie 2 (Туроп Ван Орман, Джон Райс) [2019, мультфильм, комедия, приключения, BDRip 1080p, 60 fps] DUB (rus, ukr) [iTunes] piratbit.cf

Angry Birds 2 в кино через торрент piratbit.cf

Раздают: 2 [ 0 KB/s ]
Размер: 15.43 GB | Добавлен: 1 мес. 7 д. назад | Торрент скачан:61 раз
Скачать  

19-12-2019 01:49 Angry Birds 2 в кино Скачать торрент  

Angry Birds 2 в кино / The Angry Birds Movie 2««Заклятые друзья?»»

Год выпуска: 2019
Страна: США, Финляндия
Жанр: мультфильм, комедия, приключения, семейный
Продолжительность: 01:36:47
Перевод: Дублированный [iTunes]
Субтитры: Русские, Украинские, английские

Режиссер: Туроп Ван Орман , Джон Райс
В ролях:

Джейсон Судейкис (Red, озвучка), Джош Гад (Chuck, озвучка), Лесли Джонс (Zeta, озвучка), Билл Хейдер (Leonard, озвучка), Рэйчел Блум (Silver, озвучка), Аквафина (Courtney, озвучка), Стерлинг К. Браун (Garry, озвучка), Эухенио Дербес (Glenn, озвучка), Тиффани Хэддиш (Debbie, озвучка), Дэнни Макбрайд (Bomb, озвучка), Питер Динклэйдж (Mighty Eagle, озвучка), Пит Дэвидсон (Jerry, озвучка)
Описание:
Птицы узнали о существовании голодных зелёных свиней, после чего началась священная война, которая длилась многие годы. Однако теперь на горизонте появился новый враг - Зета, обитательница третьего, замёрзшего острова. Она считает, что все должны почувствовать на себе силу холода, и начинает атаку на дальних родственников, обитающих в тёплых краях. Теперь птицы и свиньи должны объединиться, чтобы остановить заморозки.
Рейтинг:

MPAA: PG - Рекомендуется присутствие родителей
Качество: BDRip 1080p
Формат: MKV
Видео: AVC | 1920 x 1032 | 59.940 fps | 20.0 Мбит/сек
Аудио #1: AC-3 | 5.1 | 48 kHz | 384 Кбит/сек | 16 bit | Дубляж (iTunes) | RUS |
Аудио #2: AC-3 | 2.0 | 48 kHz | 160 Кбит/сек | 16 bit | Дубляж (iTunes) | UKR |
Аудио #3: DTS-HD MA | 5.1 | 48 kHz | 1509 Кбит/сек | 16 bit | Оригинал | ENG |
Навигация по главам: есть

General
Unique ID : 219319621901263707013410309610450404654 (0xA4FF6C3773C1BCBF54A46AE035C7452E)
Complete name : D:\2019 Angry Birds 2 в кино 1080p 60 fps rustorka.com.mkv
Format : Matroska
Format version : Version 4 / Version 2
File size : 15.4 GiB
Duration : 1h 36mn
Overall bit rate mode : Variable
Overall bit rate : 22.8 Mbps
Movie name : Angry Birds 2 в кино / The Angry Birds Movie 2
Encoded date : UTC 2019-11-08 21:12:41
Writing application : mkvmerge v22.0.0 ('At The End Of The World') 64-bit
Writing library : libebml v1.3.5 + libmatroska v1.4.8
DURATION : 01:34:33.542000000
NUMBER_OF_FRAMES : 1759
NUMBER_OF_BYTES : 57368
_STATISTICS_WRITING_APP : mkvmerge v22.0.0 ('At The End Of The World') 64-bit
_STATISTICS_WRITING_DATE_UTC : 2019-11-08 21:12:41
_STATISTICS_TAGS : BPS DURATION NUMBER_OF_FRAMES NUMBER_OF_BYTES
Video #1
ID : 1
Format : AVC
Format/Info : Advanced Video Codec
Format profile : High@L4.1
Format settings, CABAC : Yes
Format settings, ReFrames : 4 frames
Codec ID : V_MPEG4/ISO/AVC
Duration : 1h 36mn
Bit rate : 20.0 Mbps
Width : 1 920 pixels
Height : 1 032 pixels
Display aspect ratio : 1.85:1
Frame rate : 59.940 fps
Color space : YUV
Chroma subsampling : 4:2:0
Bit depth : 8 bits
Scan type : Progressive
Bits/(Pixel*Frame) : 0.168
Stream size : 13.4 GiB (87%)
Writing library : x264 core 146 r2538 121396c
Encoding settings : cabac=1 / ref=4 / deblock=1:-2:-2 / analyse=0x3:0x113 / me=umh / subme=9 / psy=1 / psy_rd=1.00:0.25 / mixed_ref=1 / me_range=32 / chroma_me=1 / trellis=2 / 8x8dct=1 / cqm=0 / deadzone=6,6 / fast_pskip=1 / chroma_qp_offset=-4 / threads=12 / lookahead_threads=2 / sliced_threads=0 / nr=0 / decimate=0 / interlaced=0 / bluray_compat=0 / constrained_intra=0 / bframes=8 / b_pyramid=2 / b_adapt=2 / b_bias=0 / direct=3 / weightb=1 / open_gop=0 / weightp=2 / keyint=599 / keyint_min=60 / scenecut=40 / intra_refresh=0 / rc_lookahead=60 / rc=2pass / mbtree=1 / bitrate=20000 / ratetol=1.0 / qcomp=0.80 / qpmin=0 / qpmax=69 / qpstep=4 / cplxblur=20.0 / qblur=0.5 / vbv_maxrate=50000 / vbv_bufsize=65000 / nal_hrd=none / filler=0 / ip_ratio=1.10 / aq=1:0.50
Language : English
Default : Yes
Forced : No
DURATION : 01:36:47.769000000
NUMBER_OF_FRAMES : 348118
NUMBER_OF_BYTES : 14500783736
_STATISTICS_WRITING_APP : mkvmerge v22.0.0 ('At The End Of The World') 64-bit
_STATISTICS_WRITING_DATE_UTC : 2019-11-08 21:12:41
_STATISTICS_TAGS : BPS DURATION NUMBER_OF_FRAMES NUMBER_OF_BYTES
Audio #2
ID : 2
Format : AC-3
Format/Info : Audio Coding 3
Mode extension : CM (complete main)
Format settings, Endianness : Big
Codec ID : A_AC3
Duration : 1h 36mn
Bit rate mode : Constant
Bit rate : 384 Kbps
Channel(s) : 6 channels
Channel positions : Front: L C R, Side: L R, LFE
Sampling rate : 48.0 KHz
Bit depth : 16 bits
Compression mode : Lossy
Stream size : 266 MiB (2%)
Title : Дубляж (iTunes)
Language : Russian
Default : Yes
Forced : Yes
Audio #3
ID : 3
Format : AC-3
Format/Info : Audio Coding 3
Mode extension : CM (complete main)
Format settings, Endianness : Big
Codec ID : A_AC3
Duration : 1h 36mn
Bit rate mode : Constant
Bit rate : 160 Kbps
Channel(s) : 2 channels
Channel positions : Front: L R
Sampling rate : 48.0 KHz
Bit depth : 16 bits
Compression mode : Lossy
Stream size : 111 MiB (1%)
Title : Дубляж (iTunes)
Language : Ukrainian
Default : No
Forced : No
Audio #4
ID : 4
Format : DTS
Format/Info : Digital Theater Systems
Format profile : MA / Core
Codec ID : A_DTS
Duration : 1h 36mn
Bit rate mode : Variable
Bit rate : 2 065 Kbps / 1 510 Kbps
Channel(s) : 6 channels
Channel positions : Front: L C R, Side: L R, LFE
Sampling rate : 48.0 KHz
Bit depth : 16 bits
Compression mode : Lossless / Lossy
Title : Original
Language : English
Default : No
Forced : No
Text #5
ID : 5
Format : UTF-8
Codec ID : S_TEXT/UTF8
Codec ID/Info : UTF-8 Plain Text
Title : Forced
Language : Russian
Default : Yes
Forced : Yes
Text #6
ID : 6
Format : UTF-8
Codec ID : S_TEXT/UTF8
Codec ID/Info : UTF-8 Plain Text
Title : Full
Language : Russian
Default : No
Forced : No
Text #7
ID : 7
Format : UTF-8
Codec ID : S_TEXT/UTF8
Codec ID/Info : UTF-8 Plain Text
Title : Full
Language : Ukrainian
Default : No
Forced : No
Text #8
ID : 8
Format : UTF-8
Codec ID : S_TEXT/UTF8
Codec ID/Info : UTF-8 Plain Text
Title : Full
Language : English
Default : No
Forced : No
Text #9
ID : 9
Format : UTF-8
Codec ID : S_TEXT/UTF8
Codec ID/Info : UTF-8 Plain Text
Title : SDH
Language : English
Default : No
Forced : No
Menu
00:00:00.000 : en:Chapter 01
00:05:19.486 : en:Chapter 02
00:12:05.892 : en:Chapter 03
00:18:52.673 : en:Chapter 04
00:24:11.867 : en:Chapter 05
00:28:46.683 : en:Chapter 06
00:34:48.461 : en:Chapter 07
00:40:10.158 : en:Chapter 08
00:47:10.828 : en:Chapter 09
00:52:56.382 : en:Chapter 10
00:58:04.690 : en:Chapter 11
01:04:36.122 : en:Chapter 12
01:09:55.650 : en:Chapter 13
01:15:40.286 : en:Chapter 14
01:21:11.116 : en:Chapter 15
01:26:26.848 : en:Chapter 16
piratbit.cf



Скачать Angry Birds 2 в кино через торрент https://b.radikal.ru/b19/1912/fe/d940884a525e.png Скачать фильм Angry Birds 2 в кино через торрент бесплантно в хорошем качестве Описание: Птицы узнали о существовании голодных зелёных свиней, после чего началась священная война, которая длилась многие годы. Однако ... 10 10 5
Торрент: Зарегистрирован [2019-12-19 01:49] · скачан: 61 раз
Статус: √ проверено
Размер: 15.43 GB
Как cкачать? Как скачать Angry Birds 2 в кино через торрент | qTorrent

% Раздел Тема Автор DL S | L
Зарубежные Мультфильмы (BDRip 1080p, 720p, Blu-ray, BD-Remux) [ 5.15 GB ] Angry Birds 2 в кино / The Angry Birds Movie 2 [2019 мультфильм BDRip 720p] DUB bober100 Скачать
16 | 0
Ultra HD (UHD: 2K, 4K, 8K) [ 14.32 GB ] Angry Birds 2 в кино / The Angry Birds Movie 2 [2019 мультфильм UHD BDRip 2160p] [SDR] DUB bober100 Скачать
3 | 0
Ultra HD (UHD: 2K, 4K, 8K) [ 9.87 GB ] Angry Birds 2 в кино / The Angry Birds Movie 2 [2019 мультфильм UHD BDRip 2160p] DUB sheker187 Скачать
2 | 0
Ultra HD (UHD: 2K, 4K, 8K) [ 37.6 GB ] Angry Birds 2 в кино / The Angry Birds Movie 2 [2019 мультфильм UHD BDRemux 2160p] DUB bober100 Скачать
2 | 0
Иностранные мультфильмы [ 1.42 GB ] Angry Birds 2 в кино / The Angry Birds Movie 2 [2019 мультфильм BDRip] - Twi7ter Скачать
98 | 2
Иностранные мультфильмы [ 1.46 GB ] Angry Birds 2 в кино / The Angry Birds Movie 2 [2019 мультфильм HDRip] bober100 Скачать
127 | 2
Зарубежные Мультфильмы (BDRip 1080p, 720p, Blu-ray, BD-Remux) [ 8.38 GB ] Angry Birds 2 в кино / The Angry Birds Movie 2 [2019 мультфильм BDRip 1080p] DUB bober100 Скачать
11 | 0

28-11-2019 20:33  

Отключить всю рекламу на сайте

    Дорогой пользователь! Огромная просьба, поблагодарите релизера, оцените раздачу и оставьте свои комментарий, если Вы скачали Angry Birds 2 в кино через торрент бесплатно! Внесите свою лепту в развитие PiratBit!
    Комментировать посты могут только пользователи прошедшие не сложную регистрацию
    Показать сообщения:    

    Angry Birds 2 в кино через торрент
    Скачать бесплатно Angry Birds 2 в кино
    Angry Birds 2 в кино скачать торрент
    Angry Birds 2 в кино смотреть онлайн
    Cкачать фильм Angry Birds 2 в кино бесплатно
    Angry Birds 2 в кино скачать торрент в хорошем качестве
    Angry Birds 2 в кино смотреть онлайн бесплатно в хорошем качестве


    Вы не можете начинать темы
    Вы не можете отвечать на сообщения
    Вы не можете редактировать свои сообщения
    Вы не можете удалять свои сообщения
    Вы не можете голосовать в опросах
    Вы не можете прикреплять файлы к сообщениям
    Вы можете скачивать файлы