Ссылка на приватное зеркало всего за 1$. Внимание количество ограничено!!!

OK

1+1

iTunes

мы

OK

1

WEB-DLRip

Джокер

Пифагор

Ведьмак / The Witcher сериал

iTunes

ПШазам

ОК

Оно 2

iTunes

30
pack

Вам бонус

ВАЖНО

!!Акция!!

Alien_RageХит недели

RePack

Resident Evil 21

ИГРА 18+

pack

RePack

jed

RePack

fifa19

RePack

Assassins Creed: Odyssey

RePack

NEED FOR SPEED™ PAYBACK

4 сезон

9 сезон

Бесстыжие 9 сезон

Все сериалы

все сериалы на PB.wtf

RePack

FAR CRY 5
  

Последняя фантазия: Духи внутри нас / Final Fantasy: The Spirits Within (Хиронобу Сакагучи, Мото Сакакибара) [2001 г., Фантастика, BDRip 1080p-HEVC 10bit, Дубляж] piratbit.cf

Последняя фантазия: Духи внутри нас через торрент piratbit.cf

Раздают: 17 [ 0 KB/s ]
Размер: 5.1 GB | Добавлен: 1 мес. 8 д. назад | Торрент скачан:132 раза
Скачать  

21-12-2019 08:28 Последняя фантазия: Духи внутри нас Скачать торрент  

Последняя фантазия: Духи внутри нас / Final Fantasy: The Spirits Within
Год выпуска: 2001
Страна: США Япония
Жанр: Фантастика
Продолжительность: 01:45:58
Перевод: Дубляж
Субтитры: нет

Режиссер: Хиронобу Сакагучи, Мото Сакакибара



Описание: Земля, год 2065… Планета в страшной опасности. На родину человечества напали монстры-фантомы из космоса, которым невозможно противостоять. Полупрозрачные чудовища, более похожие на порождения галлюцинирующего мозга, уже истребили большую часть человечества и скоро их господство над Землей станет полным.

Судьба мира в руках горстки смельчаков — ученой Аки Росс, доктора Сиди и техноспецназа капитана Эдвардса, вступающих в последнее сражение с инопланетной нечистью.

Качество: BDRip 1080p
Формат: MKV
Видео кодек: H.265
Аудио кодек: DTS
Видео: HEVC/H.265, 1920x1032, ~5373 Kbps
Аудио#1: DTS ES , 6 ch, 1509 Kbps Русский Профессиональный (дублированный) Невафильм®. от Xpeh_LKR
Релиз от: ADVOKAT69
скриншот  ,скриншот  ,скриншот  ,скриншот  ,

Общее
Уникальный идентификатор : 250389064763723612577546816830565964241 (0xBC5F2E04975C9D94B39505FE48FAD9D1)
Полное имя : E:\КИНО HEVC\Последняя фантазия\Последняя фантазия Духи внутри нас (2001) HEVC 10bit.mkv
Формат : Matroska
Версия формата : Version 4
Размер файла : 5,10 Гбайт
Продолжительность : 1 ч. 45 м.
Общий поток : 6884 Кбит/сек
Дата кодирования : UTC 2019-12-20 13:42:54
Программа кодирования : mkvmerge v9.2.0 ('Photograph') 64bit
Библиотека кодирования : libebml v1.3.3 + libmatroska v1.4.4

Видео
Идентификатор : 1
Формат : HEVC
Формат/Информация : High Efficiency Video Coding
Профиль формата : Main 10@L4@Main
Идентификатор кодека : V_MPEGH/ISO/HEVC
Продолжительность : 1 ч. 45 м.
Битрейт : 5373 Кбит/сек
Ширина : 1920 пикселей
Высота : 1032 пикселя
Соотношение сторон : 1,85:1
Режим частоты кадров : Постоянный
Частота кадров : 23,976 (24000/1001) кадра/сек
Цветовое пространство : YUV
Субдискретизация насыщенности : 4:2:0
Битовая глубина : 10 бит
Бит/(Пиксели*Кадры) : 0.113
Размер потока : 3,98 Гбайт (78%)
Библиотека кодирования : x265 3.1+11-de920e0a3183:[Windows][GCC 9.1.1][64 bit] 10bit
Настройки программы : rc=abr / bitrate=5500 / qcomp=0.60 / qpstep=4 / qpmax=69 / qpmin=0 / no-lossless / no-cu-lossless / ipratio=1.40 / pbratio=1.30 / aq-mode=4 / aq-strength=1.00 / psy-rd=2.00 / psy-rdoq=1.50 / rdoq-level=2 / cbqpoffs=0 / crqpoffs=0 / ctu=64 / min-cu-size=8 / ref=4 / limit-refs=3 / limit-modes / me=3 / subme=4 / merange=57 / no-hme / rd=4 / no-rd-refine / no-ssim-rd / rdpenalty=0 / deblock=-1:-1 / min-keyint=23 / keyint=250 / bframes=8 / bframe-bias=0 / b-adapt=2 / no-b-intra / b-pyramid / cutree / max-merge=3 / no-fades / weightp / no-weightb / rect / no-amp / sao / no-limit-sao / no-sao-non-deblock / no-early-skip / no-splitrd-skip / rskip / no-tskip / no-tskip-fast / no-fast-intra / scenecut=40 / scenecut-bias=0.00 / rc-lookahead=40 / gop-lookahead=0 / lookahead-slices=4 / max-tu-size=32 / tu-inter-depth=1 / tu-intra-depth=1 / limit-tu=0 / qg-size=32 / radl=0 / open-gop / no-hevc-aq / no-aq-motion / no-dynamic-refine / dynamic-rd=0.00 / nr-intra=0 / nr-inter=0 / strong-intra-smoothing / no-constrained-intra / no-strict-cbr / no-const-vbv / no-rc-grain / wpp / no-pmode / no-pme / no-psnr / no-ssim / signhide / stats-write=0 / stats-read=0 / zone-count=0 / input-csp=1 / input-res=1920x1032 / interlace=0 / total-frames=152448 / frame-threads=4 / level-idc=0 / high-tier=1 / uhd-bd=0 / no-analyze-src-pics / no-allow-non-conformance / no-repeat-headers / annexb / no-aud / no-hrd / info / hash=0 / temporal-mvp / no-temporal-layers / no-splice / no-intra-refresh / sar=0 / overscan=0 / videoformat=5 / range=0 / colorprim=2 / transfer=2 / colormatrix=2 / chromaloc=0 / display-window=0cll=0,0 / min-luma=0 / max-luma=1023 / log2-max-poc-lsb=8 / vui-timing-info / vui-hrd-info / slices=1 / no-opt-qp-pps / no-opt-ref-list-length-pps / no-multi-pass-opt-rps / no-opt-cu-delta-qp / no-hdr / no-hdr-opt / no-dhdr10-opt / no-idr-recovery-sei / analysis-reuse-level=5 / scale-factor=0 / refine-intra=0 / refine-inter=0 / refine-mv=0 / refine-ctu-distortion=0 / refine-analysis-type=0 / ctu-info=0 / copy-pic=1 / max-ausize-factor=1.0 / no-single-sei / no-svt / no-field / no-lowpass-dct / cpuid=1049071 / numa-pools=12,12 / log-level=2 / qp-adaptation-range=1.00
Default : Да
Forced : Нет

Аудио
Идентификатор : 2
Формат : DTS ES
Формат/Информация : Digital Theater Systems
Коммерческое название : DTS-ES Matrix
Идентификатор кодека : A_DTS
Продолжительность : 1 ч. 45 м.
Вид битрейта : Постоянный
Битрейт : 1509 Кбит/сек
Каналы : 6 каналов
Channel(s)_Original : 7 каналов
ChannelLayout_Original : C L R Ls Rs Cs LFE
Частота : 48,0 КГц
Частота кадров : 93,750 кадра/сек (512 SPF)
Битовая глубина : 24 бит
Метод сжатия : С потерями
Размер потока : 1,12 Гбайт (22%)
Заголовок : Профессиональный (дублированный) Невафильм®. от Xpeh_LKR
Default : Да
Forced : Нет

Меню
00:00:00.000 : en:Chapter 01
00:10:02.184 : en:Chapter 02
00:13:08.746 : en:Chapter 03
00:17:28.380 : en:Chapter 04
00:21:06.598 : en:Chapter 05
00:27:43.078 : en:Chapter 06
00:34:57.136 : en:Chapter 07
00:41:22.271 : en:Chapter 08
00:46:38.045 : en:Chapter 09
00:52:41.741 : en:Chapter 10
00:58:09.819 : en:Chapter 11
01:03:28.596 : en:Chapter 12
01:13:36.328 : en:Chapter 13
01:18:43.260 : en:Chapter 14
01:23:36.094 : en:Chapter 15
01:30:28.172 : en:Chapter 16

piratbit.cf



Скачать Последняя фантазия: Духи внутри нас через торрент https://b.radikal.ru/b35/1912/14/24688b8ee377.png Скачать фильм Последняя фантазия: Духи внутри нас через торрент бесплантно в хорошем качестве Описание: Земля, год 2065… Планета в страшной опасности. На родину человечества напали монстры-фантомы из космоса, которым невозможно ... 10 10 11
Торрент: Зарегистрирован [2019-12-21 08:28] · скачан: 132 раз
Статус: √ проверено
Размер: 5.1 GB
Как cкачать? Как скачать Последняя фантазия: Духи внутри нас через торрент | qTorrent



Последний раз редактировалось: ADVOKAT69 (2019-12-22 08:58), всего редактировалось 1 раз

28-11-2019 20:33  

Отключить всю рекламу на сайте

21-12-2019 08:33 Последняя фантазия: Духи внутри нас Скачать торрент  

НЕ СВАЛИВАЙТЕ С РАЗДАЧИpiratbit.cf



21-12-2019 17:26 Последняя фантазия: Духи внутри нас Скачать торрент  

Отличный мульт! Кто не смотрел - рекомендую. piratbit.cf



    Дорогой пользователь! Огромная просьба, поблагодарите релизера, оцените раздачу и оставьте свои комментарий, если Вы скачали Последняя фантазия: Духи внутри нас через торрент бесплатно! Внесите свою лепту в развитие PiratBit!
    Комментировать посты могут только пользователи прошедшие не сложную регистрацию
    Показать сообщения:    

    Последняя фантазия: Духи внутри нас через торрент
    Скачать бесплатно Последняя фантазия: Духи внутри нас
    Последняя фантазия: Духи внутри нас скачать торрент
    Последняя фантазия: Духи внутри нас смотреть онлайн
    Cкачать фильм Последняя фантазия: Духи внутри нас бесплатно
    Последняя фантазия: Духи внутри нас скачать торрент в хорошем качестве
    Последняя фантазия: Духи внутри нас смотреть онлайн бесплатно в хорошем качестве


    Вы не можете начинать темы
    Вы не можете отвечать на сообщения
    Вы не можете редактировать свои сообщения
    Вы не можете удалять свои сообщения
    Вы не можете голосовать в опросах
    Вы не можете прикреплять файлы к сообщениям
    Вы можете скачивать файлы