Ссылка на приватное зеркало всего за 1$. Внимание количество ограничено!!!

OK

1+1

iTunes

мы

OK

1

WEB-DLRip

Джокер

Пифагор

Ведьмак / The Witcher сериал

Лицензия

ПШазам

ОК

Оно 2

iTunes

30
pack

Вам бонус

ВАЖНО

!!Акция!!

Alien_RageХит недели

RePack

Resident Evil 21

ИГРА 18+

pack

RePack

jed

RePack

fifa19

RePack

Assassins Creed: Odyssey

RePack

NEED FOR SPEED™ PAYBACK

4 сезон

9 сезон

Бесстыжие 9 сезон

Все сериалы

все сериалы на PB.wtf

RePack

FAR CRY 5
  

Последняя фантазия VII: Дети пришествия / Final Fantasy VII: Advent Children (Тэцуя Номура, Такэси Нодзуэ) [2005 г., Приключения, боевые искусства, фэнтези, BDRip 1080p-HEVC 10bit, Авторский (одноголосый)] piratbit.cf

Последняя фантазия VII: Дети пришествия через торрент piratbit.cf

Раздают: 1 [ 0 KB/s ]
Размер: 5.65 GB | Добавлен: 1 мес. назад | Торрент скачан:81 раз
Скачать  

22-12-2019 08:02 Последняя фантазия VII: Дети пришествия Скачать торрент  

Последняя фантазия VII: Дети пришествия / Final Fantasy VII: Advent Children
Год выпуска: 2005
Страна: Япония
Жанр: Приключения, боевые искусства, фэнтези
Продолжительность: 02:06:26
Перевод: Авторский (одноголосый)
Субтитры: нет

Режиссер: Тэцуя Номура, Такэси Нодзуэ



В ролях: Сакурай Такахиро, Аюми Ито, Сётаро Морикубо, Маая Сакамото, Кейдзи Фудзивара, Тайтен Кусуноки, Юджи Киши, Кэндзи Номура, Шого Сузуки, Масахиро Кобаяси

Описание: Прошло два года с тех пор, как команда супербойцов под предводительством Клауда Страйфа спасла мир от кошмарного злодея Сефирота. Настал мир, и могучий Клауд удалился от дел, поселившись в сиротском приюте, чтобы среди детей забыть о кровавых битвах прошлого.

Но покой герою только снится: жителей планеты начинает поражать странная болезнь-Геостигма, а в окрестностях появляется таинственный незнакомец по имени Кададж, явно замышляющий дурное. И его недобрые планы как-то связаны с беззащитными сиротами.

Качество: BDRip 1080p
Формат: MKV
Видео кодек: H.265
Аудио кодек: DTS
Видео: HEVC/H.265, 1920x1080, ~4689 Kbps
Аудио#1: DTS, 6 ch, 1509 Kbps Русский - авторский одноголосый (Строев)
Релиз от: ADVOKAT69
скриншот  ,скриншот  ,[th]

  скриншот  ,

Общее
Уникальный идентификатор : 227510980224448214724928379567999878537 (0xAB29055CEBD6D70B88353EC79FED0589)
Полное имя : E:\КИНО HEVC\Последняя фантазия\Последняя фантазия VII Дети пришествия (2005) HEVC 10bit.mkv
Формат : Matroska
Версия формата : Version 4
Размер файла : 5,65 Гбайт
Продолжительность : 2 ч. 6 м.
Общий поток : 6393 Кбит/сек
Дата кодирования : UTC 2019-12-20 13:54:20
Программа кодирования : mkvmerge v9.2.0 ('Photograph') 64bit
Библиотека кодирования : libebml v1.3.3 + libmatroska v1.4.4

Видео
Идентификатор : 1
Формат : HEVC
Формат/Информация : High Efficiency Video Coding
Профиль формата : Main 10@L4@Main
Идентификатор кодека : V_MPEGH/ISO/HEVC
Продолжительность : 2 ч. 6 м.
Битрейт : 4689 Кбит/сек
Ширина : 1920 пикселей
Высота : 1080 пикселей
Соотношение сторон : 16:9
Режим частоты кадров : Постоянный
Частота кадров : 23,976 (24000/1001) кадра/сек
Цветовое пространство : YUV
Субдискретизация насыщенности : 4:2:0
Битовая глубина : 10 бит
Бит/(Пиксели*Кадры) : 0.094
Размер потока : 4,15 Гбайт (73%)
Библиотека кодирования : x265 3.1+2-g764455672+26:[Windows][MSVC 1916][64 bit] Yuuki 10bit
Настройки программы : rc=crf / crf=18.0000 / qcomp=0.60 / qpstep=4 / stats-write=0 / stats-read=0 / no-lossless / no-cu-lossless / aq-mode=3 / aq-strength=0.40 / cbqpoffs=0 / crqpoffs=0 / ipratio=1.40 / pbratio=1.30 / psy-rd=0.40 / psy-rdoq=1.50 / deblock=1:1 / ref=3 / limit-refs=3 / limit-modes / bframes=4 / b-adapt=2 / bframe-bias=0 / b-pyramid / no-b-intra / weightp / no-weightb / min-keyint=23 / max-keyint=250 / rc-lookahead=50 / gop-lookahead=0 / scenecut=40 / radl=0 / max-cu-size=64 / min-cu-size=8 / me=3 / subme=4 / merange=57 / rdoq-level=2 / rd=4 / rdpenalty=0 / dynamic-rd=0.00 / no-rd-refine / ----- / cutree / sao / rect / no-amp / open-gop / wpp / no-pmode / no-pme / no-psnr / no-ssim / nr-intra=0 / nr-inter=0 / no-constrained-intra / strong-intra-smoothing / max-tu-size=32 / tu-inter-depth=1 / tu-intra-depth=1 / limit-tu=0 / qg-size=32 / qpmax=69 / qpmin=0 / ----- / cpuid=1049071 / frame-threads=4 / numa-pools=12,12 / log-level=2 / input-csp=1 / input-res=1920x1080 / interlace=0 / level-idc=0 / high-tier=1 / uhd-bd=0 / no-allow-non-conformance / no-repeat-headers / no-aud / no-hrd / info / hash=0 / no-temporal-layers / lookahead-slices=4 / no-splice / no-intra-refresh / no-ssim-rd / signhide / no-tskip / max-merge=3 / temporal-mvp / no-analyze-src-pics / no-sao-non-deblock / no-early-skip / rskip / no-fast-intra / no-tskip-fast / no-splitrd-skip / zone-count=0 / no-strict-cbr / no-rc-grain / no-const-vbv / sar=0 / overscan=0 / videoformat=5 / range=0 / colorprim=2 / transfer=2 / colormatrix=1 / chromaloc=0 / display-window=0cll=0,0 / min-luma=0 / max-luma=1023 / log2-max-poc-lsb=8 / vui-timing-info / vui-hrd-info / slices=1 / no-opt-qp-pps / no-opt-ref-list-length-pps / no-multi-pass-opt-rps / scenecut-bias=0.03 / no-opt-cu-delta-qp / no-aq-motion / no-hdr / no-hdr-opt / no-dhdr10-opt / no-idr-recovery-sei / analysis-reuse-level=5 / scale-factor=0 / refine-intra=0 / refine-inter=0 / refine-mv=0 / refine-ctu-distortion=0 / no-limit-sao / ctu-info=0 / no-lowpass-dct / refine-analysis-type=0 / copy-pic=1 / max-ausize-factor=1.0 / no-dynamic-refine / no-single-sei / no-hevc-aq / no-svt / no-field / qp-adaptation-range=1.00
Default : Да
Forced : Нет
Цветовой диапазон : Limited
Коэффициенты матрицы : BT.709

Аудио #1
Идентификатор : 2
Формат : DTS
Формат/Информация : Digital Theater Systems
Идентификатор кодека : A_DTS
Продолжительность : 2 ч. 6 м.
Вид битрейта : Постоянный
Битрейт : 1509 Кбит/сек
Каналы : 6 каналов
ChannelLayout : C L R Ls Rs LFE
Частота : 48,0 КГц
Частота кадров : 93,750 кадра/сек (512 SPF)
Битовая глубина : 24 бит
Метод сжатия : С потерями
Размер потока : 1,33 Гбайт (24%)
Заголовок : Русский (DTS, 6 ch, 1536 Кбит/с) - авторский одноголосый (Строев)
Default : Да
Forced : Нет

Аудио #2
Идентификатор : 3
Формат : AC-3
Формат/Информация : Audio Coding 3
Коммерческое название : Dolby Digital
Идентификатор кодека : A_AC3
Продолжительность : 2 ч. 6 м.
Вид битрейта : Постоянный
Битрейт : 192 Кбит/сек
Каналы : 2 канала
ChannelLayout : L R
Частота : 48,0 КГц
Частота кадров : 31,250 кадров/сек (1536 SPF)
Метод сжатия : С потерями
Размер потока : 174 Мбайт (3%)
Заголовок : Русский (AC3, 2 ch, 192Кбит/с) - любительский одноголосый (Lisek)
ServiceKind/String : Complete Main
Default : Нет
Forced : Нет

Меню
00:00:00.000 : en:Chapter 01
00:01:29.798 : en:Chapter 02
00:02:51.171 : en:Chapter 03
00:04:27.475 : en:Chapter 04
00:07:12.390 : en:Chapter 05
00:10:17.867 : en:Chapter 06
00:12:34.670 : en:Chapter 07
00:15:07.948 : en:Chapter 08
00:21:31.498 : en:Chapter 09
00:23:20.023 : en:Chapter 10
00:24:50.322 : en:Chapter 11
00:29:15.211 : en:Chapter 12
00:34:00.872 : en:Chapter 13
00:38:15.584 : en:Chapter 14
00:39:38.417 : en:Chapter 15
00:42:12.488 : en:Chapter 16
00:43:26.854 : en:Chapter 17
00:44:50.896 : en:Chapter 18
00:46:30.412 : en:Chapter 19
00:49:15.786 : en:Chapter 20
00:50:18.974 : en:Chapter 21
00:53:41.384 : en:Chapter 22
00:58:08.443 : en:Chapter 23
00:59:24.644 : en:Chapter 24
01:01:51.082 : en:Chapter 25
01:03:32.308 : en:Chapter 26
01:05:53.491 : en:Chapter 27
01:08:57.925 : en:Chapter 28
01:11:13.686 : en:Chapter 29
01:13:18.560 : en:Chapter 30
01:16:24.621 : en:Chapter 31
01:19:11.538 : en:Chapter 32
01:19:38.857 : en:Chapter 33
01:21:55.577 : en:Chapter 34
01:22:57.055 : en:Chapter 35
01:29:58.684 : en:Chapter 36
01:32:17.240 : en:Chapter 37
01:35:30.808 : en:Chapter 38
01:43:27.784 : en:Chapter 39
01:45:04.047 : en:Chapter 40
01:49:07.290 : en:Chapter 41
01:50:17.485 : en:Chapter 42
01:51:33.770 : en:Chapter 43
01:55:14.240 : en:Chapter 44
02:00:42.485 : en:Chapter 45

piratbit.cf



Скачать Последняя фантазия VII: Дети пришествия через торрент https://d.radikal.ru/d38/1912/37/922314fd9149.png Скачать фильм Последняя фантазия VII: Дети пришествия через торрент бесплантно в хорошем качестве Описание: Прошло два года с тех пор, как команда супербойцов под предводительством Клауда Страйфа спасла мир от кошмарного злодея Сефирота. ... 10 10 2
Торрент: Зарегистрирован [2019-12-22 08:02] · скачан: 81 раз
Статус: √ проверено
Размер: 5.65 GB
Как cкачать? Как скачать Последняя фантазия VII: Дети пришествия через торрент | qTorrent

% Раздел Тема Автор DL S | L
Аниме [DVDrip, WEB-DLRip, HDrip] [ 2.18 GB ] Последняя Фантазия 7: Дети Пришествия / Final Fantasy VII Advent Children [2005 BDRip] Моряк Скачать
4 | 0

28-11-2019 20:33  

Отключить всю рекламу на сайте

    Дорогой пользователь! Огромная просьба, поблагодарите релизера, оцените раздачу и оставьте свои комментарий, если Вы скачали Последняя фантазия VII: Дети пришествия через торрент бесплатно! Внесите свою лепту в развитие PiratBit!
    Комментировать посты могут только пользователи прошедшие не сложную регистрацию
    Показать сообщения:    

    Последняя фантазия VII: Дети пришествия через торрент
    Скачать бесплатно Последняя фантазия VII: Дети пришествия
    Последняя фантазия VII: Дети пришествия скачать торрент
    Последняя фантазия VII: Дети пришествия смотреть онлайн
    Cкачать фильм Последняя фантазия VII: Дети пришествия бесплатно
    Последняя фантазия VII: Дети пришествия скачать торрент в хорошем качестве
    Последняя фантазия VII: Дети пришествия смотреть онлайн бесплатно в хорошем качестве


    Вы не можете начинать темы
    Вы не можете отвечать на сообщения
    Вы не можете редактировать свои сообщения
    Вы не можете удалять свои сообщения
    Вы не можете голосовать в опросах
    Вы не можете прикреплять файлы к сообщениям
    Вы можете скачивать файлы