Ссылка на приватное зеркало всего за 1$. Внимание количество ограничено!!!

OK

1+1

iTunes

мы

OK

1

WEB-DLRip

Джокер

Пифагор

Ведьмак / The Witcher сериал

Лицензия

ПШазам

ОК

Оно 2

iTunes

30
pack

Вам бонус

ВАЖНО

!!Акция!!

Alien_RageХит недели

RePack

Resident Evil 21

ИГРА 18+

pack

RePack

jed

RePack

fifa19

RePack

Assassins Creed: Odyssey

RePack

NEED FOR SPEED™ PAYBACK

4 сезон

9 сезон

Бесстыжие 9 сезон

Все сериалы

все сериалы на PB.wtf

RePack

FAR CRY 5
  

Гангстер, коп и дьявол / The Gangster, the Cop, the Devil / Akinjeon (Ли Вон-тхэ) [2019 г., Боевик, криминал, триллер, BDRip 1080p-HEVC 10bit, Дубляж iTunes] piratbit.cf

Гангстер, коп и дьявол через торрент piratbit.cf

Качают: 1 [ 0 KB/s ]
Размер: 3.87 GB | Добавлен: 13 д. назад | Торрент скачан:20 раз
Скачать  

09-01-2020 10:20 Гангстер, коп и дьявол Скачать торрент  

Гангстер коп и дьявол / The Gangster the Cop the Devil / Akinjeon
Год выпуска: 2019
Страна: Корея Южная
Жанр: Боевик, криминал, триллер
Продолжительность: 01:49:54
Перевод: Дубляж iTunes
Субтитры: Русские Forced

Режиссер: Ли Вон-тхэ



В ролях: Ма Дон-сок, Ким Му-ёль, Ким Сон-гю, Ю Сын-мок, Чхве Мин-чхоль, Ким Юн-сон, Хо Дон-вон, Ким Сын-хён, Ким Гю-ри, Ю Джэ-мён

Описание: 2005 год. Криминальный босс провинциального города Чхонан Чан Дон-су подвергается нападению серийного убийцы и оказывается единственной выжившей жертвой. Репутация подмочена, единственный способ восстановить авторитет в глазах братвы — найти нападавшего и отомстить. Местный детектив Чон Тхэ-сок всей своей полицейской душой ненавидит организованную преступность, но ему приходится объединить силы с бандитом Дон-су, чтобы изловить ещё более ненавистного маньяка.

Качество: BDRip 1080p
Формат: MKV
Видео кодек: H.265
Аудио кодек: AC3
Видео: HEVC/H.265, 1920x800, ~4658 Kbps
Аудио#1: AC3, 6 ch, 384 Kbps Русский дубляж iTunes
Релиз от: ADVOKAT69
скриншот  ,скриншот  ,скриншот  ,скриншот  ,

Общее
Уникальный идентификатор : 248280608184385834379990619463320190908 (0xBAC91B15237687E19EC711AD3A15BFBC)
Полное имя : E:\Гангстер, коп и дьявол (2019) HEVC 10bit.mkv
Формат : Matroska
Версия формата : Version 4
Размер файла : 3,87 Гбайт
Продолжительность : 1 ч. 49 м.
Общий поток : 5044 Кбит/сек
Дата кодирования : UTC 2020-01-05 10:30:05
Программа кодирования : mkvmerge v9.2.0 ('Photograph') 64bit
Библиотека кодирования : libebml v1.3.3 + libmatroska v1.4.4

Видео
Идентификатор : 1
Формат : HEVC
Формат/Информация : High Efficiency Video Coding
Профиль формата : Main 10@L4@Main
Идентификатор кодека : V_MPEGH/ISO/HEVC
Продолжительность : 1 ч. 49 м.
Битрейт : 4658 Кбит/сек
Ширина : 1920 пикселей
Высота : 800 пикселей
Соотношение сторон : 2,40:1
Режим частоты кадров : Постоянный
Частота кадров : 24,000 кадра/сек
Цветовое пространство : YUV
Субдискретизация насыщенности : 4:2:0
Битовая глубина : 10 бит
Бит/(Пиксели*Кадры) : 0.126
Размер потока : 3,58 Гбайт (92%)
Библиотека кодирования : x265 3.2+22-a8a2c4c37267:[Windows][GCC 9.2.0][64 bit] 10bit
Настройки программы : cpuid=1111039 / frame-threads=5 / numa-pools=32,0 / wpp / no-pmode / no-pme / no-psnr / no-ssim / log-level=2 / input-csp=1 / input-res=1920x800 / interlace=0 / total-frames=158276 / level-idc=0 / high-tier=1 / uhd-bd=0 / ref=4 / no-allow-non-conformance / no-repeat-headers / annexb / no-aud / no-hrd / info / hash=0 / no-temporal-layers / open-gop / min-keyint=24 / keyint=250 / gop-lookahead=0 / bframes=8 / b-adapt=2 / b-pyramid / bframe-bias=0 / rc-lookahead=25 / lookahead-slices=4 / scenecut=40 / hist-scenecut=0 / radl=0 / no-splice / no-intra-refresh / ctu=64 / min-cu-size=8 / rect / no-amp / max-tu-size=32 / tu-inter-depth=1 / tu-intra-depth=1 / limit-tu=0 / rdoq-level=2 / dynamic-rd=0.00 / no-ssim-rd / signhide / no-tskip / nr-intra=0 / nr-inter=0 / no-constrained-intra / strong-intra-smoothing / max-merge=3 / limit-refs=3 / limit-modes / me=3 / subme=3 / merange=57 / temporal-mvp / no-frame-dup / no-hme / weightp / no-weightb / no-analyze-src-pics / deblock=0:0 / no-sao / no-sao-non-deblock / rd=4 / selective-sao=0 / no-early-skip / rskip / no-fast-intra / no-tskip-fast / no-cu-lossless / no-b-intra / no-splitrd-skip / rdpenalty=0 / psy-rd=2.00 / psy-rdoq=1.00 / no-rd-refine / no-lossless / cbqpoffs=0 / crqpoffs=0 / rc=crf / crf=18.0 / qcomp=0.60 / qpstep=4 / stats-write=0 / stats-read=0 / ipratio=1.40 / pbratio=1.30 / aq-mode=3 / aq-strength=1.00 / cutree / zone-count=0 / no-strict-cbr / qg-size=32 / no-rc-grain / qpmax=69 / qpmin=0 / no-const-vbv / sar=0 / overscan=0 / videoformat=5 / range=0 / colorprim=1 / transfer=1 / colormatrix=1 / chromaloc=0 / display-window=0 / cll=0,0 / min-luma=0 / max-luma=1023 / log2-max-poc-lsb=8 / vui-timing-info / vui-hrd-info / slices=1 / no-opt-qp-pps / no-opt-ref-list-length-pps / no-multi-pass-opt-rps / scenecut-bias=0.05 / hist-threshold=0.01 / no-opt-cu-delta-qp / no-aq-motion / no-hdr / no-hdr-opt / no-dhdr10-opt / no-idr-recovery-sei / analysis-reuse-level=8 / scale-factor=0 / refine-intra=0 / refine-inter=0 / refine-mv=1 / refine-ctu-distortion=0 / no-limit-sao / ctu-info=0 / no-lowpass-dct / refine-analysis-type=0 / copy-pic=1 / max-ausize-factor=1.0 / no-dynamic-refine / no-single-sei / no-hevc-aq / no-svt / no-field / qp-adaptation-range=1.00 / no-scenecut-aware-qp
Default : Да
Forced : Нет
Цветовой диапазон : Limited
Основные цвета : BT.709
Характеристики трансфера : BT.709
Коэффициенты матрицы : BT.709

Аудио
Идентификатор : 2
Формат : AC-3
Формат/Информация : Audio Coding 3
Коммерческое название : Dolby Digital
Идентификатор кодека : A_AC3
Продолжительность : 1 ч. 49 м.
Вид битрейта : Постоянный
Битрейт : 384 Кбит/сек
Каналы : 6 каналов
ChannelLayout : L R C LFE Ls Rs
Частота : 48,0 КГц
Частота кадров : 31,250 кадров/сек (1536 SPF)
Метод сжатия : С потерями
Размер потока : 302 Мбайт (8%)
Заголовок : Профессиональный (дублированный) iTunes
ServiceKind/String : Complete Main
Default : Да
Forced : Нет

Текст
Идентификатор : 3
Формат : UTF-8
Идентификатор кодека : S_TEXT/UTF8
Идентификатор кодека/Информация : UTF-8 Plain Text
Продолжительность : 1 ч. 41 м.
Битрейт : 0 бит/сек
ElementCount : 5
Размер потока : 368 байт (0%)
Заголовок : русские (форсированные)
Default : Да
Forced : Нет

Меню
00:00:00.000 : en:Chapter 01
00:09:32.917 : en:Chapter 02
00:18:25.792 : en:Chapter 03
00:26:37.500 : en:Chapter 04
00:37:36.667 : en:Chapter 05
00:47:03.833 : en:Chapter 06
01:01:17.292 : en:Chapter 07
01:11:17.167 : en:Chapter 08
01:20:57.625 : en:Chapter 09
01:32:52.875 : en:Chapter 10
01:45:46.542 : en:Chapter 11

piratbit.cf



Скачать Гангстер, коп и дьявол через торрент https://a.radikal.ru/a38/2001/3d/1aa4cc42bdd4.png Скачать фильм Гангстер, коп и дьявол через торрент бесплантно в хорошем качестве Описание: 2005 год. Криминальный босс провинциального города Чхонан Чан Дон-су подвергается нападению серийного убийцы и оказывается ... 10 10 1
Торрент: Зарегистрирован [2020-01-09 10:20] · скачан: 20 раз
Статус: √ проверено
Размер: 3.87 GB
Как cкачать? Как скачать Гангстер, коп и дьявол через торрент | qTorrent

% Раздел Тема Автор DL S | L
Фильмы (Blu-ray, BD-Remux, HDDVD) [ 28.11 GB ] Гангстер коп и дьявол / Бандит полицейский дьявол / The Gangster the Cop the Devil / Akinjeon [2019 BD Remux 1080p] [FRA Transfer] bober100 Скачать
2 | 0
Азиатские фильмы [ 10.67 GB ] Гангстер коп и дьявол / Бандит полицейский дьявол / The Gangster the Cop the Devil / Akinjeon [2019 BDRip 1080p] bober100 Скачать
2 | 0
Азиатские фильмы [ 1.46 GB ] Гангстер коп и дьявол / Бандит полицейский дьявол / The Gangster the Cop the Devil / Akinjeon [2019 BDRip] bober100 Скачать
4 | 0

28-11-2019 20:33  

Отключить всю рекламу на сайте

10-01-2020 11:30 Гангстер, коп и дьявол Скачать торрент  

https://yadi.sk/i/yud0HMNASA-gdw
загрузил на яндекс дискpiratbit.cf



    Дорогой пользователь! Огромная просьба, поблагодарите релизера, оцените раздачу и оставьте свои комментарий, если Вы скачали Гангстер, коп и дьявол через торрент бесплатно! Внесите свою лепту в развитие PiratBit!
    Комментировать посты могут только пользователи прошедшие не сложную регистрацию
    Показать сообщения:    

    Гангстер, коп и дьявол через торрент
    Скачать бесплатно Гангстер, коп и дьявол
    Гангстер, коп и дьявол скачать торрент
    Гангстер, коп и дьявол смотреть онлайн
    Cкачать фильм Гангстер, коп и дьявол бесплатно
    Гангстер, коп и дьявол скачать торрент в хорошем качестве
    Гангстер, коп и дьявол смотреть онлайн бесплатно в хорошем качестве


    Вы не можете начинать темы
    Вы не можете отвечать на сообщения
    Вы не можете редактировать свои сообщения
    Вы не можете удалять свои сообщения
    Вы не можете голосовать в опросах
    Вы не можете прикреплять файлы к сообщениям
    Вы можете скачивать файлы