Ссылка на приватное зеркало всего за 1$. Внимание количество ограничено!!!

OK

1+1

iTunes

мы

OK

1

WEB-DLRip

Джокер

Пифагор

Ведьмак / The Witcher сериал

Лицензия

ПШазам

ОК

Оно 2

iTunes

30
pack

Вам бонус

ВАЖНО

!!Акция!!

Alien_RageХит недели

RePack

Resident Evil 21

ИГРА 18+

pack

RePack

jed

!!Акция!!

Alien_Rage

RePack

fifa19

RePack

Assassins Creed: Odyssey

RePack

NEED FOR SPEED™ PAYBACK

4 сезон

9 сезон

Бесстыжие 9 сезон

Все сериалы

все сериалы на PB.wtf

RePack

FAR CRY 5
  

Готэм / Gotham / Сезон: 1 / Серии: 1-12 из 22 (Дэнни Кэннон) [2014, триллер, драма, криминал, BDRip 1080p] MVO [TVShows] piratbit.cf

Готэм через торрент piratbit.cf

Размер: 37.84 GB | Добавлен: 4 д. назад | Торрент скачан:0 раз
Скачать  

10-01-2020 13:05 Готэм Скачать торрент  

◈ Готэм / Gotham ◈
Год выпуска: 2014
Страна: США
Жанр: триллер, драма, криминал
Продолжительность: ~ 00:49:00 серия
Перевод: Профессиональный (многоголосый) | TVShows
Субтитры: Отсутствуют

Режиссер: Дэнни Кэннон

rating

В ролях: Бен МакКензи, Шон Пертуи, Робин Тейлор, Забрина Гевара, Эрин Ричардс, Донал Лог, Джада Пинкетт Смит, Дэвид Мазоуз, Камрен Бикондова, Кори Майкл Смит и др.

Описание: Новый сотрудник департамента полиции Готэма, детектив Джеймс Гордон и его напарник Харви Буллок назначаются начальником отдела полиции Готэма по расследованию убийств Сарой Эссен на самое громкое дело последних лет - убийство Томаса и Марты Уэйн. Во время расследования Гордон знакомится с сыном убитых - Брюсом Уэйном, который после смерти родителей находится под опекой своего дворецкого Альфреда. Одновременно с расследованием убийства Гордону приходится бороться с местным главарем банды Фиш Муни, а также с будущими злодеями Готэма: Селиной Кайл и Освальдом Кобблпотом. В итоге, Гордон фокусируется на дружбе с молодым Брюсом, чтобы в будущем сделать из маленького мальчика Тёмного рыцаря - защитника Готэма.

Качество: BDRip 1080p
Формат: MKV

Видео: MPEG-4 AVC, 1920x1080, 23.976 fps, ~9840 kbps
Аудио 1: Русский, AC3, 48 kHz, 6 ch, 384 kbps
Аудио 2: Английский, AAC, 48 kHz, 6 ch, 518 kbps
скриншот  скриншот  скриншот  скриншот  

General
Unique ID : 218299836164297956846327351064331603544 (0xA43B04E5DBD1913B70DD50A8F54CCE58)
Complete name : Gotham.S01E01.1080p.TVShows.mkv
Format : Matroska
Format version : Version 4
File size : 3.76 GiB
Duration : 50 min 4 s
Overall bit rate : 10.7 Mb/s
Encoded date : UTC 2020-01-10 12:16:20
Writing application : mkvmerge v33.1.0 ('Primrose') 64-bit
Writing library : libebml v1.3.7 + libmatroska v1.5.0

Video
ID : 1
Format : AVC
Format/Info : Advanced Video Codec
Format profile : High@L4.1
Format settings : CABAC / 4 Ref Frames
Format settings, CABAC : Yes
Format settings, Reference frames : 4 frames
Codec ID : V_MPEG4/ISO/AVC
Duration : 50 min 3 s
Bit rate : 9 840 kb/s
Width : 1 920 pixels
Height : 1 080 pixels
Display aspect ratio : 16:9
Frame rate mode : Constant
Frame rate : 23.976 FPS
Color space : YUV
Chroma subsampling : 4:2:0
Bit depth : 8 bits
Scan type : Progressive
Bits/(Pixel*Frame) : 0.198
Stream size : 3.44 GiB (92%)
Writing library : x264 core 148 r2597 e86f3a1
Encoding settings : cabac=1 / ref=4 / deblock=1:0:0 / analyse=0x3:0x133 / me=umh / subme=7 / psy=1 / psy_rd=1.00:0.00 / mixed_ref=1 / me_range=16 / chroma_me=1 / trellis=1 / 8x8dct=1 / cqm=0 / deadzone=21,11 / fast_pskip=0 / chroma_qp_offset=-2 / threads=18 / lookahead_threads=3 / sliced_threads=0 / nr=0 / decimate=1 / interlaced=0 / bluray_compat=0 / constrained_intra=0 / bframes=3 / b_pyramid=2 / b_adapt=1 / b_bias=0 / direct=1 / weightb=1 / open_gop=0 / weightp=2 / keyint=250 / keyint_min=23 / scenecut=40 / intra_refresh=0 / rc_lookahead=40 / rc=2pass / mbtree=1 / bitrate=9840 / ratetol=1.0 / qcomp=0.60 / qpmin=0 / qpmax=69 / qpstep=4 / cplxblur=20.0 / qblur=0.5 / ip_ratio=1.40 / aq=1:1.00
Language : English
Default : Yes
Forced : No

Audio #1
ID : 2
Format : AC-3
Format/Info : Audio Coding 3
Commercial name : Dolby Digital
Codec ID : A_AC3
Duration : 50 min 3 s
Bit rate mode : Constant
Bit rate : 384 kb/s
Channel(s) : 6 channels
Channel layout : L R C LFE Ls Rs
Sampling rate : 48.0 kHz
Frame rate : 31.250 FPS (1536 SPF)
Compression mode : Lossy
Stream size : 137 MiB (4%)
Title : TVShows
Language : Russian
Service kind : Complete Main
Default : Yes
Forced : Yes

Audio #2
ID : 3
Format : AAC LC
Format/Info : Advanced Audio Codec Low Complexity
Codec ID : A_AAC-2
Duration : 50 min 4 s
Bit rate : 518 kb/s
Channel(s) : 6 channels
Channel layout : C L R Ls Rs LFE
Sampling rate : 48.0 kHz
Frame rate : 46.875 FPS (1024 SPF)
Compression mode : Lossy
Stream size : 185 MiB (5%)
Title : Original
Language : English
Default : No
Forced : No

При каждом добавлении создаётся новый торрент. Чтобы начать докачку новой серии, пользователям необходимо сделать следующее:

остановить скачивание,
удалить старый торрент у себя из клиента (старые серии удалять не надо),
скачать новый торрент и запустить его у себя в клиенте вместо старого, при этом указать клиенту путь в старую папку куда и должно происходить скачивание новых серий.

Ваш клиент при этом должен произвести хеширование (проверку) старой папки (если не производит сам - помогите ему сделать это), и будет докачивать только те серии которых у вас ещё нет. Старые серии при этом не удаляются, а продолжают раздаваться!
Eсли вы уже удалили старые серии, то предотвратить повторную закачку старых серий можно, отжав галочку в соответствующих местах при запуске нового торрента. По возможности, желательно не удалять старые серии как можно дольше чтобы релизёр не столько продолжал раздавать старые серии, а смог сконцентрироваться на новых.
piratbit.cf



Скачать Готэм через торрент http://i67.fastpic.ru/big/2014/0923/97/15a0b22c611bf2c4b003a4ce45c30897.png Скачать фильм Готэм через торрент бесплантно в хорошем качестве Описание: Новый сотрудник департамента полиции Готэма, детектив Джеймс Гордон и его напарник Харви Буллок назначаются начальником отдела ... 10 10 3
Торрент: Зарегистрирован [2020-01-14 10:20] · скачан: 0 раз
Статус: √ проверено
Размер: 37.84 GB
Как cкачать? Как скачать Готэм через торрент | qTorrent

28-11-2019 20:33  

Отключить всю рекламу на сайте

    Дорогой пользователь! Огромная просьба, поблагодарите релизера, оцените раздачу и оставьте свои комментарий, если Вы скачали Готэм через торрент бесплатно! Внесите свою лепту в развитие PiratBit!
    Комментировать посты могут только пользователи прошедшие не сложную регистрацию
    Показать сообщения:    

    Готэм через торрент
    Скачать бесплатно Готэм
    Готэм скачать торрент
    Готэм смотреть онлайн
    Cкачать фильм Готэм бесплатно
    Готэм скачать торрент в хорошем качестве
    Готэм смотреть онлайн бесплатно в хорошем качестве


    Вы не можете начинать темы
    Вы не можете отвечать на сообщения
    Вы не можете редактировать свои сообщения
    Вы не можете удалять свои сообщения
    Вы не можете голосовать в опросах
    Вы не можете прикреплять файлы к сообщениям
    Вы можете скачивать файлы