Ссылка на приватное зеркало всего за 1$. Внимание количество ограничено!!!

OK

1+1

iTunes

мы

OK

1

WEB-DLRip

Джокер

Пифагор

Ведьмак / The Witcher сериал

iTunes

ПШазам

ОК

Оно 2

iTunes

30
pack

Вам бонус

ВАЖНО

!!Акция!!

Alien_RageХит недели

RePack

Resident Evil 21

ИГРА 18+

pack

RePack

jed

RePack

fifa19

RePack

Assassins Creed: Odyssey

RePack

NEED FOR SPEED™ PAYBACK

4 сезон

9 сезон

Бесстыжие 9 сезон

Все сериалы

все сериалы на PB.wtf

RePack

FAR CRY 5
  

Мидуэй / Midway (Роланд Эммерих) [2019, боевик, драма, военный, история, WEB-DL 1080p] DUB [Line] piratbit.cf

Мидуэй через торрент piratbit.cf

Раздают: 348 [ 12 MB/s ] Качают: 37 [ 12 MB/s ]
Размер: 4.06 GB | Добавлен: 5 д. назад | Торрент скачан:421 раз
Скачать  

11-01-2020 13:53 Мидуэй Скачать торрент  

Мидуэй | Midway
Год выпуска: 2019
Страна: Китай, США
Жанр: боевик, драма, военный, история
Продолжительность: 02:16:04
Перевод: Дублированный | Line
Субтитры: Русские (форсированные), английские

Режиссер: Роланд Эммерих

rating


В ролях: Эд Скрейн, Патрик Уилсон, Вуди Харрельсон, Люк Эванс, Мэнди Мур, Люк Клеинтенк, Деннис Куэйд, Аарон Экхарт, Киан Джонсон, Ник Джонас

Описание: История одного из самых масштабных и стратегически важных морских сражений на Тихом океане Второй мировой войны. В июне 1942 года американский флот под командованием адмирала Честера Нимица одержал победу над японцами в сражении у атолла Мидуэй, что стало ключевым моментом в Тихоокеанской войне.

Качество: WEB-DL 1080p
Формат: MKV

Видео: MPEG-4 AVC, 3885 Кбит/с, 1920x856
Аудио: Русский (AC3, 2 ch, 192 Кбит/с)
Аудио: английский (AC3, 2 ch, 192 Кбит/с)
скриншот  скриншот  скриншот  скриншот  скриншот  

Format : Matroska
Format version : Version 4
File size : 4.06 GiB
Duration : 2 h 16 min
Overall bit rate : 4 272 kb/s
Movie name : Мидуэй (Midway) 2019 WEB-DLRip (1080p).zxc117
Encoded date : UTC 2020-01-22 20:07:30
Writing application : mkvmerge v7.8.0 ('River Man') 32bit built on Mar 27 2015 16:18:02
Writing library : libebml v1.3.1 + libmatroska v1.4.2
Cover : Yes
Attachments : Cover.jpg

Video
ID : 1
Format : AVC
Format/Info : Advanced Video Codec
Format profile : High@L4.1
Format settings : CABAC / 4 Ref Frames
Format settings, CABAC : Yes
Format settings, Reference : 4 frames
Codec ID : V_MPEG4/ISO/AVC
Duration : 2 h 16 min
Bit rate : 3 885 kb/s
Width : 1 920 pixels
Height : 856 pixels
Display aspect ratio : 2.25:1
Frame rate mode : Constant
Frame rate : 24.000 FPS
Color space : YUV
Chroma subsampling : 4:2:0
Bit depth : 8 bits
Scan type : Progressive
Bits/(Pixel*Frame) : 0.098
Stream size : 3.69 GiB (91%)
Title : Мидуэй (Midway) 2019 WEB-DLRip (1080p).zxc117
Language : Russian
Default : Yes
Forced : No
Color range : Limited
Color primaries : BT.709
Transfer characteristics : BT.709
Matrix coefficients : BT.709

Audio #1
ID : 2
Format : AC-3
Format/Info : Audio Coding 3
Commercial name : Dolby Digital
Codec ID : A_AC3
Duration : 2 h 16 min
Bit rate mode : Constant
Bit rate : 192 kb/s
Channel(s) : 2 channels
Channel layout : L R
Sampling rate : 48.0 kHz
Frame rate : 31.250 FPS (1536 SPF)
Compression mode : Lossy
Stream size : 187 MiB (4%)
Language : Russian
Service kind : Complete Main
Default : Yes
Forced : Yes

Audio #2
ID : 3
Format : AC-3
Format/Info : Audio Coding 3
Commercial name : Dolby Digital
Codec ID : A_AC3
Duration : 2 h 16 min
Bit rate mode : Constant
Bit rate : 192 kb/s
Channel(s) : 2 channels
Channel layout : L R
Sampling rate : 48.0 kHz
Frame rate : 31.250 FPS (1536 SPF)
Compression mode : Lossy
Stream size : 187 MiB (4%)
Language : English
Service kind : Complete Main
Default : No
Forced : No

Text #1
ID : 4
Format : UTF-8
Codec ID : S_TEXT/UTF8
Codec ID/Info : UTF-8 Plain Text
Duration : 2 h 5 min
Bit rate : 6 b/s
Count of elements : 84
Stream size : 5.61 KiB (0%)
Title : forsed
Language : Russian
Default : Yes
Forced : Yes

Text #2
ID : 5
Format : UTF-8
Codec ID : S_TEXT/UTF8
Codec ID/Info : UTF-8 Plain Text
Duration : 2 h 6 min
Bit rate : 41 b/s
Count of elements : 1397
Stream size : 38.8 KiB (0%)
Language : English
Default : No
Forced : No

piratbit.cf



Скачать Мидуэй через торрент https://i111.fastpic.ru/big/2019/1129/03/57704df4ae5214c2668b27d787d14c03.jpg Скачать фильм Мидуэй через торрент бесплантно в хорошем качестве Описание: История одного из самых масштабных и стратегически важных морских сражений на Тихом океане Второй мировой войны. В июне 1942 года ... 9.9 10 32
Торрент: Зарегистрирован [2020-01-22 20:23] · скачан: 421 раз
Статус: T временная
Размер: 4.06 GB
Как cкачать? Как скачать Мидуэй через торрент | qTorrent

% Раздел Тема Автор DL S | L
T Фильмы (мультфильмы) cо спонсором показа (Новинки AVI/MKV) [ 5.74 GB ] Мидуэй / Midway [2019 военный история WEB-DL 720p] DUB [Line] bober100 Скачать
11 | 0
Фильмы с авторской озвучкой [ 3.43 GB ] Бесстрашный: Битва при Мидуэй / Dauntless: The Battle of Midway [2019 Военный BDRip 720p] AVO [Багичев] - ExKinoRay Enigma2010 Скачать
108 | 8
T Фильмы (мультфильмы) cо спонсором показа (Новинки AVI/MKV) [ 2.05 GB ] Мидуэй / Midway [2019 военный история WEB-DLRip] DUB [Line] bober100 Скачать
10 | 0
T Фильмы 2019-2020 [DVDrip, WEB-DLRip, HDrip] (DUB, MVO) [ 1.46 GB ] Мидуэй / Midway [2019 военный история WEB-DLRip] DUB [Line] bober100 Скачать
59 | 0
Классика зарубежного кино [ 1.46 GB ] Мидуэй / Midway [1976 военный BDRip] [MVO] killermax2013 Скачать
2 | 0


Последний раз редактировалось: bober100 (2020-01-22 20:32), всего редактировалось 2 раз(а)

28-11-2019 20:33  

Отключить всю рекламу на сайте

23-01-2020 14:15 Мидуэй Скачать торрент  

piratbit.cf



23-01-2020 15:48 Мидуэй Скачать торрент  

Что то мне подсказывает ,что данную картину обязательно
посмотреть с другим битрейтом .Не драма поди))piratbit.cf



23-01-2020 16:48 Мидуэй Скачать торрент  

Офуенный кин!!! На уровне Перл Халбр - не меньше.piratbit.cf



23-01-2020 23:04 Мидуэй Скачать торрент  

Andrew70 писал(а):

Офуенный кин!!! На уровне Перл Халбр - не меньше.

До Перл Харбора ему далеко, я бы сказал фильм крепкий середняк ,второй раз как нибудь еще посмотрю в лицухе.piratbit.cf



    Дорогой пользователь! Огромная просьба, поблагодарите релизера, оцените раздачу и оставьте свои комментарий, если Вы скачали Мидуэй через торрент бесплатно! Внесите свою лепту в развитие PiratBit!
    Комментировать посты могут только пользователи прошедшие не сложную регистрацию
    Показать сообщения:    

    Мидуэй через торрент
    Скачать бесплатно Мидуэй
    Мидуэй скачать торрент
    Мидуэй смотреть онлайн
    Cкачать фильм Мидуэй бесплатно
    Мидуэй скачать торрент в хорошем качестве
    Мидуэй смотреть онлайн бесплатно в хорошем качестве


    Вы не можете начинать темы
    Вы не можете отвечать на сообщения
    Вы не можете редактировать свои сообщения
    Вы не можете удалять свои сообщения
    Вы не можете голосовать в опросах
    Вы не можете прикреплять файлы к сообщениям
    Вы можете скачивать файлы