Ссылка на приватное зеркало всего за 1$. Внимание количество ограничено!!!

OK

1+1

iTunes

мы

OK

1

WEB-DLRip

Джокер

Пифагор

Ведьмак / The Witcher сериал

iTunes

ПШазам

ОК

Оно 2

iTunes

30
pack

Вам бонус

ВАЖНО

!!Акция!!

Alien_RageХит недели

RePack

Resident Evil 21

ИГРА 18+

pack

RePack

jed

RePack

fifa19

RePack

Assassins Creed: Odyssey

RePack

NEED FOR SPEED™ PAYBACK

4 сезон

9 сезон

Бесстыжие 9 сезон

Все сериалы

все сериалы на PB.wtf

RePack

FAR CRY 5
  

Гарри Поттер. Полная коллекция / Harry Potter: Complete 8-Film Collection (Крис Коламбус, Альфонсо Куарон, Майк Ньюэлл) [2001-2011, фэнтези, приключения, BDRip 1080р] DUB, MVO, DVO, AVO piratbit.cf

Гарри Поттер. Полная коллекция через торрент piratbit.cf

Качают: 1 [ 0 KB/s ]
Размер: 126.63 GB | Добавлен: 13 д. назад | Торрент скачан:10 раз
Скачать  

12-01-2020 14:29 Гарри Поттер. Полная коллекция Скачать торрент  

Гарри Поттер. Полная коллекция / Harry Potter: Complete 8-Film Collection
Год выпуска: 2001-2011

Страна: США, Великобритания

Жанр: Фэнтези, приключения

Перевод: Дублированный, профессиональный (многоголосый), профессиональный (двухголосый), авторский (одноголосый)

Субтитры: Русские, украинские, английские

Режиссер: Крис Коламбус, Альфонсо Куарон, Майк Ньюэлл, Дэвид Йейтс

В ролях: Дэниэл Рэдклифф, Руперт Гринт, Эмма Уотсон, Том Фелтон, Гэри Олдман, Роберт Паттинсон, Рэйф Файнс, Брендан Глисон, Ричард Харрис, Мэгги Смит, Робби Колтрейн, Саундерс Триплетс, Фиона Шоу, Гарри Меллинг, Джейсон Айзекс, Кеннет Брана, Алан Рикман, Дэвид Тьюлис, Майкл Гэмбон, Имелда Стонтон, Эванна Линч, Джим Бродбент, Бонни Райт, Хелена Бонем Картер
Качество: BDRip 1080p
Формат: MKV
Видео: MPEG-4 AVC, ~ 12300 Кбит/с, 1920x798, 1920x802, 1920x800, 23.976 кадр/с
Аудио: Русский (DTS, 6 ch, 1509 Кбит/с), (DTS, 6 ch, 755 Кбит/с), (AC3, 6 ch, 640 Кбит/с), (AC3, 6 ch, 384 Кбит/с), (AC3, 6 ch, 448 Кбит/с), украинский (AC3, 2 ch, 192 Кбит/с), (AC3, 6 ch, 448 Кбит/с), (AC3, 6 ch, 640 Кбит/с), английский (DTS, 6 ch, 1509 Кбит/с)
Гарри Поттер и философский камень / Harry Potter and the Sorceres's Stone
Год выпуска: 2001

Страна: США, Великобритания

Жанр: Фэнтези, приключения

Продолжительность: 02:32:22

Перевод: Дублированный, профессиональный (многоголосый), профессиональный (двухголосый), авторский (одноголосый)

Субтитры: Русские, украинские, английские

Режиссер: Крис Коламбус

rating

В ролях: Дэниэл Рэдклифф, Руперт Гринт, Эмма Уотсон, Том Фелтон, Ричард Харрис, Мэгги Смит, Алан Рикман, Робби Колтрейн, Саундерс Триплетс, Фиона Шоу, Гарри Меллинг, Дэвид Брэдли (I), Ричард Гриффитс, Дерек Дэдмен, Нина Янг

Описание: Ужасная трагедия, случившаяся 11 лет назад, навсегда изменила жизнь одного мальчика. С самого детства Гарри рос, испытывая ненависть своих близких. И он даже не знал, что в его судьбе уже давно было предначертано стать одним из самых великих волшебников. И с того момента, как Гарри получил свое первое письмо, приглашение в Школу Чародейства и Волшебства Хогвартс, магия жива! Он прибыл на платформу 9 и ?, взошел на поезд и уже вместе с новыми друзьями мчится в таинственный мир добра и зла, чести и подлости, дружбы и предательства…
Качество: BDRip 1080р
Формат: MKV
Видео: MPEG-4 AVC, 12,3 Мбит/сек, 1920х798
Аудио#1: Русский, AC-3, 6 ch, 640 Кбит/с - Dub (Blu-ray EUR)
Аудио#2: Русский, AC-3, 6 ch, 448 Кбит/с - DVO (Гланц и Королёва)
Аудио#3: Русский, AC-3, 6 ch, 448 Кбит/с - MVO (С.Р.И)
Аудио#4: Русский, DTS, 6 ch, 755 Кбит/сек - AVO (Рябов)
Аудио#5: Украинский, AC-3, 2 ch, 192 Кбит/с - MVO (1+1)
Аудио#6: Украинский, AC-3, 2 ch, 192 Кбит/с - MVO (Новый канал)
Аудио#7: Английский, DTS, 6 ch, 1509 Кбит/сек
Видео
Идентификатор : 1
Формат : AVC
Формат/Информация : Advanced Video Codec
Профиль формата : High@L4.1
Настройки формата : CABAC / 5 Ref Frames
Параметр CABAC формата : Да
Параметр RefFrames формата : 5 кадров
Идентификатор кодека : V_MPEG4/ISO/AVC
Продолжительность : 2 ч. 32 м.
Битрейт : 12,3 Мбит/сек
Ширина : 1920 пикселей
Высота : 798 пикселей
Соотношение сторон : 2,40:1
Режим частоты кадров : Постоянный
Частота кадров : 23,976 (24000/1001) кадра/сек
Цветовое пространство : YUV
Субдискретизация насыщенности : 4:2:0
Битовая глубина : 8 бит
Тип развёртки : Прогрессивная
Бит/(Пиксели*Кадры) : 0.335
Размер потока : 12,7 Гбайт (73%)
Заголовок : Release for HDCLUB
Библиотека кодирования : x264 core 142 r2409+42 04be48a tMod [8-bit@4:2:0 X86_64]
Настройки программы : cabac=1 / ref=5 / deblock=1:-2:-2 / analyse=0x3:0x113 / me=umh / subme=11 / psy=1 / fade_compensate=0.00 / psy_rd=1.20:0.00 / mixed_ref=1 / me_range=48 / chroma_me=1 / trellis=2 / 8x8dct=1 / cqm=0 / deadzone=21,11 / fast_pskip=0 / chroma_qp_offset=-2 / threads=12 / lookahead_threads=3 / sliced_threads=0 / nr=0 / decimate=1 / interlaced=0 / bluray_compat=0 / constrained_intra=0 / fgo=0 / bframes=10 / b_pyramid=2 / b_adapt=2 / b_bias=0 / direct=3 / weightb=1 / open_gop=0 / weightp=2 / keyint=250 / keyint_min=23 / scenecut=40 / intra_refresh=0 / rc_lookahead=120 / rc=2pass / mbtree=1 / bitrate=12300 / ratetol=1.0 / qcomp=0.80 / qpmin=0:0:0 / qpmax=69:69:69 / qpstep=4 / cplxblur=20.0 / qblur=0.5 / vbv_maxrate=62500 / vbv_bufsize=78125 / nal_hrd=none / filler=0 / ip_ratio=1.10 / aq=4:0.70 / aq-sensitivity=11.00 / aq-factor=1.00:1.00:1.00 / aq2=1:0.60 / aq2-sensitivity=9.00 / aq2-factor=1.00:1.00:1.00 / aq3=1:[0.60:0.60]:[0.60:0.60]:[0.60:0.60]:[0.60:0.60] / aq3-sensitivity=10.00 / aq3-factor=[1.00:1.00]:[1.00:1.00]:[1.00:1.00] / aq3-boundary=192:64:24
Язык : English
Default : Да
Forced : Нет
Цветовой диапазон : Limited
Основные цвета : BT.709
Характеристики трансфера : BT.709
Коэффициенты матрицы : BT.709

Аудио #1
Идентификатор : 2
Формат : AC-3
Формат/Информация : Audio Coding 3
Коммерческое название : Dolby Digital
Идентификатор кодека : A_AC3
Продолжительность : 2 ч. 32 м.
Вид битрейта : Постоянный
Битрейт : 640 Кбит/сек
Каналы : 6 каналов
ChannelLayout : L R C LFE Ls Rs
Частота : 48,0 КГц
Частота кадров : 31,250 кадров/сек (1536 SPF)
Битовая глубина : 16 бит
Метод сжатия : С потерями
Размер потока : 697 Мбайт (4%)
Заголовок : Dub, Blu-ray CEE
Язык : Russian
ServiceKind/String : Complete Main
Default : Да
Forced : Нет

Аудио #2
Идентификатор : 3
Формат : AC-3
Формат/Информация : Audio Coding 3
Коммерческое название : Dolby Digital
Идентификатор кодека : A_AC3
Продолжительность : 2 ч. 32 м.
Вид битрейта : Постоянный
Битрейт : 448 Кбит/сек
Каналы : 6 каналов
ChannelLayout : L R C LFE Ls Rs
Частота : 48,0 КГц
Частота кадров : 31,250 кадров/сек (1536 SPF)
Битовая глубина : 16 бит
Метод сжатия : С потерями
Размер потока : 488 Мбайт (3%)
Заголовок : DVO, Гланц и Королёва
Язык : Russian
ServiceKind/String : Complete Main
Default : Нет
Forced : Нет

Аудио #3
Идентификатор : 4
Формат : AC-3
Формат/Информация : Audio Coding 3
Коммерческое название : Dolby Digital
Идентификатор кодека : A_AC3
Продолжительность : 2 ч. 32 м.
Вид битрейта : Постоянный
Битрейт : 448 Кбит/сек
Каналы : 6 каналов
ChannelLayout : L R C LFE Ls Rs
Частота : 48,0 КГц
Частота кадров : 31,250 кадров/сек (1536 SPF)
Битовая глубина : 16 бит
Метод сжатия : С потерями
Размер потока : 488 Мбайт (3%)
Заголовок : MVO, С.Р.И
Язык : Russian
ServiceKind/String : Complete Main
Default : Нет
Forced : Нет

Аудио #4
Идентификатор : 5
Формат : DTS
Формат/Информация : Digital Theater Systems
Идентификатор кодека : A_DTS
Продолжительность : 2 ч. 32 м.
Вид битрейта : Постоянный
Битрейт : 755 Кбит/сек
Каналы : 6 каналов
ChannelLayout : C L R Ls Rs LFE
Частота : 48,0 КГц
Частота кадров : 93,750 кадра/сек (512 SPF)
Битовая глубина : 24 бит
Метод сжатия : С потерями
Размер потока : 822 Мбайт (5%)
Заголовок : VO, Рябов
Язык : Russian
Default : Нет
Forced : Нет

Аудио #5
Идентификатор : 6
Формат : AC-3
Формат/Информация : Audio Coding 3
Коммерческое название : Dolby Digital
Идентификатор кодека : A_AC3
Продолжительность : 2 ч. 32 м.
Вид битрейта : Постоянный
Битрейт : 192 Кбит/сек
Каналы : 2 канала
ChannelLayout : L R
Частота : 48,0 КГц
Частота кадров : 31,250 кадров/сек (1536 SPF)
Битовая глубина : 16 бит
Метод сжатия : С потерями
Размер потока : 209 Мбайт (1%)
Заголовок : MVO, 1+1
Язык : Ukrainian
ServiceKind/String : Complete Main
Default : Нет
Forced : Нет

Аудио #6
Идентификатор : 7
Формат : AC-3
Формат/Информация : Audio Coding 3
Коммерческое название : Dolby Digital
Идентификатор кодека : A_AC3
Продолжительность : 2 ч. 32 м.
Вид битрейта : Постоянный
Битрейт : 192 Кбит/сек
Каналы : 2 канала
ChannelLayout : L R
Частота : 48,0 КГц
Частота кадров : 31,250 кадров/сек (1536 SPF)
Битовая глубина : 16 бит
Метод сжатия : С потерями
Размер потока : 209 Мбайт (1%)
Заголовок : MVO, Новый канал
Язык : Ukrainian
ServiceKind/String : Complete Main
Default : Нет
Forced : Нет

Аудио #7
Идентификатор : 8
Формат : DTS
Формат/Информация : Digital Theater Systems
Идентификатор кодека : A_DTS
Продолжительность : 2 ч. 32 м.
Вид битрейта : Постоянный
Битрейт : 1509 Кбит/сек
Каналы : 6 каналов
ChannelLayout : C L R Ls Rs LFE
Частота : 48,0 КГц
Частота кадров : 93,750 кадра/сек (512 SPF)
Битовая глубина : 16 бит
Метод сжатия : С потерями
Размер потока : 1,61 Гбайт (9%)
Язык : English
Default : Нет
Forced : Нет

Текст #1
Идентификатор : 9
Формат : UTF-8
Идентификатор кодека : S_TEXT/UTF8
Идентификатор кодека/Информация : UTF-8 Plain Text
Заголовок : captions
Язык : Russian
Default : Да
Forced : Нет

Текст #2
Идентификатор : 10
Формат : UTF-8
Идентификатор кодека : S_TEXT/UTF8
Идентификатор кодека/Информация : UTF-8 Plain Text
Язык : Russian
Default : Нет
Forced : Нет

Текст #3
Идентификатор : 11
Формат : UTF-8
Идентификатор кодека : S_TEXT/UTF8
Идентификатор кодека/Информация : UTF-8 Plain Text
Язык : Ukrainian
Default : Нет
Forced : Нет

Текст #4
Идентификатор : 12
Формат : UTF-8
Идентификатор кодека : S_TEXT/UTF8
Идентификатор кодека/Информация : UTF-8 Plain Text
Язык : English
Default : Нет
Forced : Нет

Меню
00:00:00.000 : en:Doorstep Delivery
00:04:05.411 : en:Vanishing Glass
00:08:11.157 : en:Letters From No One
00:12:17.403 : en:Keeper of the Keys
00:18:25.270 : en:Diagon Alley
00:21:43.635 : en:Gringotts
00:24:41.646 : en:Ollivanders
00:28:49.561 : en:The Boy Who Lived
00:31:05.196 : en:Platform 9 3/4
00:34:05.543 : en:Ron and Hermione
00:37:49.600 : en:Welcome to Hogwarts
00:41:29.487 : en:Sorting Hat
00:46:13.437 : en:Nick and Other Residents
00:50:29.026 : en:Potions and Parcels
00:55:04.301 : en:New Seeker
01:00:55.652 : en:Three-Headed Sentinel
01:03:43.986 : en:Facts and Feathers
01:07:48.230 : en:Mountain Troll
01:13:49.258 : en:Quidditch
01:20:17.979 : en:Interference Overcome
01:23:54.529 : en:Christmas Gift
01:28:32.473 : en:Cloaked in Darkness
01:31:42.497 : en:Mirror of Erised
01:36:42.630 : en:Norbert
01:42:34.815 : en:Forbidden Forest
01:49:05.038 : en:Up to Something
01:53:21.628 : en:Through the Trapdoor
01:58:09.749 : en:Wizards' Chess
02:03:44.750 : en:Sacrifice Play
02:06:56.108 : en:Man with Two Faces
02:10:55.347 : en:Magic Touch
02:14:18.884 : en:Mark of Love
02:17:29.574 : en:House Cup Winner
02:21:44.662 : en:Not Really Going Home
02:24:10.808 : en:End Credits

скриншот   скриншот   скриншот   скриншот  


Гарри Поттер и Тайная Комната / Harry Potter and the Chamber of Secrets
Год выпуска: 2002

Страна: США, Великобритания

Жанр: Фэнтези, приключения

Продолжительность: 02:40:56

Перевод: Дублированный, профессиональный (многоголосый), профессиональный (двухголосый)

Субтитры: Русские, украинские, английские

Режиссер: Крис Коламбус

rating

В ролях: Дэниэл Рэдклифф, Руперт Гринт, Эмма Уотсон, Ричард Гриффитс, Фиона Шоу, Гарри Меллинг, Тоби Джонс, Джим Нортон, Вероника Клиффорд, Джеймс Фелпс

Описание: Вынужденный провести свои летние каникулы с родственниками-маглами, Гарри очень удивляется, когда застает в своей комнате домашнего эльфа Добби. Он пытается донести, что в этом году в школе Хогвартс происходят ужасные вещи и юному волшебнику не стоит туда возвращаться. Гарри конечно же не воспринимает сказанное всерьез и следует заранее подготовленному плану. Но во время обучения в Хогвартсе действительно опасно: Гарри слышит странные голоса, ученики-маглы подвергаются нападению и конечно же таинственная надпись кровью на стене: «Тайная комната открыта! Трепещите, враги наследника!»
Качество: BDRip 1080p
Формат: MKV
Видео: MPEG-4 AVC, 11,0 Мбит/сек, 1920х802
Аудио#1: Русский, AC-3, 6 ch, 640 Кбит/сек - DUB (Blu-ray CEE)
Аудио#2: Русский, АС3, 6 ch, 448 Кбит/с - DVO (Гланц и Королёва)
Аудио#3: Русский, АС3, 6 ch, 448 Кбит/с - MVO (С.Р.И.)
Аудио#4: Украинскиий, AC3, 2 ch, 192 Кбит/с - MVO (1+1)
Аудио#5: Украинскиий, AC3, 2 ch, 192 Кбит/с - MVO (Новый канал)
Аудио#6: Английский, DTS, 6 ch, 1509 Кбит/сек
Видео
Идентификатор : 1
Формат : AVC
Формат/Информация : Advanced Video Codec
Профиль формата : High@L4.1
Настройки формата : CABAC / 5 Ref Frames
Параметр CABAC формата : Да
Параметр RefFrames формата : 5 кадров
Идентификатор кодека : V_MPEG4/ISO/AVC
Продолжительность : 2 ч. 40 м.
Битрейт : 11,0 Мбит/сек
Ширина : 1920 пикселей
Высота : 802 пикселя
Соотношение сторон : 2,40:1
Режим частоты кадров : Постоянный
Частота кадров : 23,976 (24000/1001) кадра/сек
Цветовое пространство : YUV
Субдискретизация насыщенности : 4:2:0
Битовая глубина : 8 бит
Тип развёртки : Прогрессивная
Бит/(Пиксели*Кадры) : 0.298
Размер потока : 12,0 Гбайт (74%)
Заголовок : Release for HDCLUB
Библиотека кодирования : x264 core 142 r2409+42 04be48a tMod [8-bit@4:2:0 X86_64]
Настройки программы : cabac=1 / ref=5 / deblock=1:-2:-2 / analyse=0x3:0x113 / me=umh / subme=11 / psy=1 / fade_compensate=0.00 / psy_rd=1.20:0.00 / mixed_ref=1 / me_range=48 / chroma_me=1 / trellis=2 / 8x8dct=1 / cqm=0 / deadzone=21,11 / fast_pskip=0 / chroma_qp_offset=-2 / threads=12 / lookahead_threads=3 / sliced_threads=0 / nr=0 / decimate=1 / interlaced=0 / bluray_compat=0 / constrained_intra=0 / fgo=0 / bframes=10 / b_pyramid=2 / b_adapt=2 / b_bias=0 / direct=3 / weightb=1 / open_gop=0 / weightp=2 / keyint=250 / keyint_min=23 / scenecut=40 / intra_refresh=0 / rc_lookahead=120 / rc=2pass / mbtree=1 / bitrate=11000 / ratetol=1.0 / qcomp=0.80 / qpmin=0:0:0 / qpmax=69:69:69 / qpstep=4 / cplxblur=20.0 / qblur=0.5 / vbv_maxrate=62500 / vbv_bufsize=78125 / nal_hrd=none / filler=0 / ip_ratio=1.10 / aq=4:0.70 / aq-sensitivity=11.00 / aq-factor=1.00:1.00:1.00 / aq2=1:0.60 / aq2-sensitivity=9.00 / aq2-factor=1.00:1.00:1.00 / aq3=1:[0.60:0.60]:[0.60:0.60]:[0.60:0.60]:[0.60:0.60] / aq3-sensitivity=10.00 / aq3-factor=[1.00:1.00]:[1.00:1.00]:[1.00:1.00] / aq3-boundary=192:64:24
Язык : English
Default : Да
Forced : Нет
Цветовой диапазон : Limited
Основные цвета : BT.709
Характеристики трансфера : BT.709
Коэффициенты матрицы : BT.709

Аудио #1
Идентификатор : 2
Формат : AC-3
Формат/Информация : Audio Coding 3
Коммерческое название : Dolby Digital
Идентификатор кодека : A_AC3
Продолжительность : 2 ч. 40 м.
Вид битрейта : Постоянный
Битрейт : 640 Кбит/сек
Каналы : 6 каналов
ChannelLayout : L R C LFE Ls Rs
Частота : 48,0 КГц
Частота кадров : 31,250 кадров/сек (1536 SPF)
Битовая глубина : 16 бит
Метод сжатия : С потерями
Размер потока : 737 Мбайт (4%)
Заголовок : Dub, Blu-ray CEE
Язык : Russian
ServiceKind/String : Complete Main
Default : Да
Forced : Нет

Аудио #2
Идентификатор : 3
Формат : AC-3
Формат/Информация : Audio Coding 3
Коммерческое название : Dolby Digital
Идентификатор кодека : A_AC3
Продолжительность : 2 ч. 40 м.
Вид битрейта : Постоянный
Битрейт : 448 Кбит/сек
Каналы : 6 каналов
ChannelLayout : L R C LFE Ls Rs
Частота : 48,0 КГц
Частота кадров : 31,250 кадров/сек (1536 SPF)
Битовая глубина : 16 бит
Метод сжатия : С потерями
Размер потока : 516 Мбайт (3%)
Заголовок : DVO, Гланц и Королёва
Язык : Russian
ServiceKind/String : Complete Main
Default : Нет
Forced : Нет

Аудио #3
Идентификатор : 4
Формат : AC-3
Формат/Информация : Audio Coding 3
Коммерческое название : Dolby Digital
Идентификатор кодека : A_AC3
Продолжительность : 2 ч. 40 м.
Вид битрейта : Постоянный
Битрейт : 448 Кбит/сек
Каналы : 6 каналов
ChannelLayout : L R C LFE Ls Rs
Частота : 48,0 КГц
Частота кадров : 31,250 кадров/сек (1536 SPF)
Битовая глубина : 16 бит
Метод сжатия : С потерями
Размер потока : 516 Мбайт (3%)
Заголовок : MVO, С.Р.И.
Язык : Russian
ServiceKind/String : Complete Main
Default : Нет
Forced : Нет

Аудио #4
Идентификатор : 5
Формат : AC-3
Формат/Информация : Audio Coding 3
Коммерческое название : Dolby Digital
Идентификатор кодека : A_AC3
Продолжительность : 2 ч. 40 м.
Вид битрейта : Постоянный
Битрейт : 192 Кбит/сек
Каналы : 2 канала
ChannelLayout : L R
Частота : 48,0 КГц
Частота кадров : 31,250 кадров/сек (1536 SPF)
Битовая глубина : 16 бит
Метод сжатия : С потерями
Размер потока : 221 Мбайт (1%)
Заголовок : MVO, 1+1
Язык : Ukrainian
ServiceKind/String : Complete Main
Default : Нет
Forced : Нет

Аудио #5
Идентификатор : 6
Формат : AC-3
Формат/Информация : Audio Coding 3
Коммерческое название : Dolby Digital
Идентификатор кодека : A_AC3
Продолжительность : 2 ч. 40 м.
Вид битрейта : Постоянный
Битрейт : 192 Кбит/сек
Каналы : 2 канала
ChannelLayout : L R
Частота : 48,0 КГц
Частота кадров : 31,250 кадров/сек (1536 SPF)
Битовая глубина : 16 бит
Метод сжатия : С потерями
Размер потока : 221 Мбайт (1%)
Заголовок : MVO, Новый канал
Язык : Ukrainian
ServiceKind/String : Complete Main
Default : Нет
Forced : Нет

Аудио #6
Идентификатор : 7
Формат : DTS
Формат/Информация : Digital Theater Systems
Идентификатор кодека : A_DTS
Продолжительность : 2 ч. 40 м.
Вид битрейта : Постоянный
Битрейт : 1509 Кбит/сек
Каналы : 6 каналов
ChannelLayout : C L R Ls Rs LFE
Частота : 48,0 КГц
Частота кадров : 93,750 кадра/сек (512 SPF)
Битовая глубина : 16 бит
Метод сжатия : С потерями
Размер потока : 1,70 Гбайт (10%)
Язык : English
Default : Нет
Forced : Нет

Текст #1
Идентификатор : 8
Формат : UTF-8
Идентификатор кодека : S_TEXT/UTF8
Идентификатор кодека/Информация : UTF-8 Plain Text
Заголовок : captions
Язык : Russian
Default : Да
Forced : Нет

Текст #2
Идентификатор : 9
Формат : UTF-8
Идентификатор кодека : S_TEXT/UTF8
Идентификатор кодека/Информация : UTF-8 Plain Text
Язык : Russian
Default : Нет
Forced : Нет

Текст #3
Идентификатор : 10
Формат : UTF-8
Идентификатор кодека : S_TEXT/UTF8
Идентификатор кодека/Информация : UTF-8 Plain Text
Язык : Ukrainian
Default : Нет
Forced : Нет

Текст #4
Идентификатор : 11
Формат : UTF-8
Идентификатор кодека : S_TEXT/UTF8
Идентификатор кодека/Информация : UTF-8 Plain Text
Язык : English
Default : Нет
Forced : Нет

Меню
00:00:00.000 : en:In a Cage
00:03:01.014 : en:Dobby's Warning
00:07:55.558 : en:Car Rescue
00:10:40.640 : en:The Burrow
00:14:07.096 : en:To Diagon Aley
00:17:57.743 : en:Flourish and Blotts
00:22:16.126 : en:Flying to Hogwarts
00:25:49.631 : en:Whomping Willow
00:28:50.353 : en:Not Expelled...Today
00:31:07.991 : en:Mandrakes; Ron's Howler
00:35:14.195 : en:Gilderoy Lockhart
00:38:00.403 : en:Mudbloods and Murmurs
00:42:47.982 : en:Writing on the Wall
00:48:16.143 : en:About the Chamber
00:52:16.133 : en:Rogue Bludger
00:57:56.973 : en:No Longer Safe
01:03:13.873 : en:Dueling Club
01:07:50.524 : en:A Parselmouth
01:11:56.145 : en:Nothing to Tell
01:17:22.387 : en:Polyjuice Potion
01:21:33.847 : en:Harry and Ron Transformed
01:25:39.926 : en:The Diary
01:29:42.251 : en:Tom Riddle
01:33:30.354 : en:Petrified
01:37:42.898 : en:Cornelius Fudge
01:42:49.079 : en:Aragog
01:47:01.623 : en:Spider Attack
01:51:07.994 : en:Missing
01:55:26.210 : en:Chamber of Secrets
02:00:53.287 : en:Backfire
02:04:09.775 : en:Heir of Slytherin
02:09:32.306 : en:The Basilisk
02:14:32.439 : en:Healing Powers
02:18:05.944 : en:Out of the Hat
02:21:20.221 : en:Dobby's Reward
02:26:35.453 : en:Welcome Back
02:31:43.094 : en:End Credits

скриншот   скриншот   скриншот   скриншот  


Гарри Поттер и узник Азкабана / Harry Potter and the Prisoner of Azkaban
Год выпуска: 2004

Страна: США, Великобритания

Жанр: Фэнтези, приключения

Продолжительность: 02:21:42

Перевод: Дублированный, профессиональный (многоголосый), профессиональный (двухголосый), авторский (одноголосый)

Субтитры: Русские, украинские, английские

Режиссер: Альфонсо Куарон

rating

В ролях: Дэниэл Рэдклифф, Ричард Гриффитс, Пэм Феррис, Фиона Шоу, Гарри Меллинг, Адриан Роулинз, Джеральдин Соммервиль, Ли Инглби, Ленни Генри, Джимми Гарднер, Гэри Олдман, Роберт Харди, Эбби Форд, Руперт Гринт, Эмма Уотсон, Оливер Фелпс, Джеймс Фелпс, Крис Ранкин, Джули Уолтерс, Девон Мюррэй, Бонни Райт

Описание: Двенадцать долгих лет ужасная крепость Азкабана держала в заключении страшного преступника по имени Сириус Блэк. Признан виновным в убийстве 13 людей, он также считается самым близким соратником лорда Волан-де-Морта. Сейчас он сбежал и представляет огромную угрозу для всего мира волшебников. Теперь Хогвартс защищают самые омерзительные существа, охранники Азкабана — дементоры. Однако, и в стенах школы Гарри и его друзьям грозит опасность, ведь среди них может быть предатель…
Качество: BDRip 1080p
Формат: MKV
Видео: MPEG-4 AVC, 11,5 Мбит/сек, 1920х768
Аудио#1: Русский, AC-3, 6 ch, 640 Кбит/сек - DUB (Blu-ray CEE)
Аудио#2: Русский, АС3, 6 ch, 384 Кбит/с - DVO (Tycoon)
Аудио#3: Русский, АС3, 6 ch, 448 Кбит/с - MVO (С.Р.И.)
Аудио#4: Русский, DTS, 6 ch, 755 Кбит/сек - VO (Рудой)
Аудио#5: Украинский, AC-3, 2 ch, 192 Кбит/с - MVO (Новый канал)
Аудио#6: Украинский, AC-3, 2 ch, 192 Кбит/с - MVO (1+1)
Аудио#7: Украинский, AC-3, 2 ch, 192 Кбит/с - MVO (Интер)
Аудио#8: Английский, DTS, 6 ch, 1509 Кбит/сек
Видео
Идентификатор : 1
Формат : AVC
Формат/Информация : Advanced Video Codec
Профиль формата : High@L4
Настройки формата : CABAC / 5 Ref Frames
Параметр CABAC формата : Да
Параметр RefFrames формата : 5 кадров
Идентификатор кодека : V_MPEG4/ISO/AVC
Продолжительность : 2 ч. 21 м.
Битрейт : 11,5 Мбит/сек
Ширина : 1920 пикселей
Высота : 798 пикселей
Соотношение сторон : 2,40:1
Режим частоты кадров : Постоянный
Частота кадров : 23,976 (24000/1001) кадра/сек
Цветовое пространство : YUV
Субдискретизация насыщенности : 4:2:0
Битовая глубина : 8 бит
Тип развёртки : Прогрессивная
Бит/(Пиксели*Кадры) : 0.312
Размер потока : 11,3 Гбайт (71%)
Заголовок : Release for HDCLUB
Библиотека кодирования : x264 core 135 r2345kMod f0c1c53
Настройки программы : cabac=1 / ref=5 / deblock=1:-3:-3 / analyse=0x3:0x133 / me=umh / subme=10 / psy=1 / fade_compensate=0.00 / psy_rd=1.08:0.00 / mixed_ref=1 / me_range=48 / chroma_me=1 / trellis=2 / 8x8dct=1 / cqm=0 / deadzone=21,11 / fast_pskip=0 / chroma_qp_offset=-2 / threads=12 / lookahead_threads=2 / sliced_threads=0 / nr=0 / decimate=1 / interlaced=0 / bluray_compat=0 / constrained_intra=0 / bframes=7 / b_pyramid=2 / b_adapt=2 / b_bias=0 / direct=3 / weightb=1 / open_gop=0 / weightp=2 / keyint=250 / keyint_min=23 / scenecut=40 / intra_refresh=0 / rc=crf / mbtree=0 / crf=17.0000 / qcomp=0.60 / qpmin=0 / qpmax=69 / qpstep=4 / ip_ratio=1.30 / pb_ratio=1.20 / aq=1:0.85
Язык : English
Default : Да
Forced : Нет

Аудио #1
Идентификатор : 2
Формат : AC-3
Формат/Информация : Audio Coding 3
Коммерческое название : Dolby Digital
Идентификатор кодека : A_AC3
Продолжительность : 2 ч. 21 м.
Вид битрейта : Постоянный
Битрейт : 640 Кбит/сек
Каналы : 6 каналов
ChannelLayout : L R C LFE Ls Rs
Частота : 48,0 КГц
Частота кадров : 31,250 кадров/сек (1536 SPF)
Битовая глубина : 16 бит
Метод сжатия : С потерями
Размер потока : 649 Мбайт (4%)
Заголовок : Dub, Blu-ray CEE
Язык : Russian
ServiceKind/String : Complete Main
Default : Да
Forced : Нет

Аудио #2
Идентификатор : 3
Формат : AC-3
Формат/Информация : Audio Coding 3
Коммерческое название : Dolby Digital
Идентификатор кодека : A_AC3
Продолжительность : 2 ч. 21 м.
Вид битрейта : Постоянный
Битрейт : 384 Кбит/сек
Каналы : 6 каналов
ChannelLayout : L R C LFE Ls Rs
Частота : 48,0 КГц
Частота кадров : 31,250 кадров/сек (1536 SPF)
Битовая глубина : 16 бит
Метод сжатия : С потерями
Размер потока : 389 Мбайт (2%)
Заголовок : DVO, Tycoon
Язык : Russian
ServiceKind/String : Complete Main
Default : Нет
Forced : Нет

Аудио #3
Идентификатор : 4
Формат : AC-3
Формат/Информация : Audio Coding 3
Коммерческое название : Dolby Digital
Идентификатор кодека : A_AC3
Продолжительность : 2 ч. 21 м.
Вид битрейта : Постоянный
Битрейт : 448 Кбит/сек
Каналы : 6 каналов
ChannelLayout : L R C LFE Ls Rs
Частота : 48,0 КГц
Частота кадров : 31,250 кадров/сек (1536 SPF)
Битовая глубина : 16 бит
Метод сжатия : С потерями
Размер потока : 454 Мбайт (3%)
Заголовок : MVO, С.Р.И.
Язык : Russian
ServiceKind/String : Complete Main
Default : Нет
Forced : Нет

Аудио #4
Идентификатор : 5
Формат : DTS
Формат/Информация : Digital Theater Systems
Идентификатор кодека : A_DTS
Продолжительность : 2 ч. 21 м.
Вид битрейта : Постоянный
Битрейт : 755 Кбит/сек
Каналы : 6 каналов
ChannelLayout : C L R Ls Rs LFE
Частота : 48,0 КГц
Частота кадров : 93,750 кадра/сек (512 SPF)
Битовая глубина : 24 бит
Метод сжатия : С потерями
Размер потока : 765 Мбайт (5%)
Заголовок : VO, Рудой
Язык : Russian
Default : Нет
Forced : Нет

Аудио #5
Идентификатор : 6
Формат : AC-3
Формат/Информация : Audio Coding 3
Коммерческое название : Dolby Digital
Идентификатор кодека : A_AC3
Продолжительность : 2 ч. 21 м.
Вид битрейта : Постоянный
Битрейт : 192 Кбит/сек
Каналы : 2 канала
ChannelLayout : L R
Частота : 48,0 КГц
Частота кадров : 31,250 кадров/сек (1536 SPF)
Битовая глубина : 16 бит
Метод сжатия : С потерями
Размер потока : 195 Мбайт (1%)
Заголовок : MVO, Новый канал
Язык : Ukrainian
ServiceKind/String : Complete Main
Default : Нет
Forced : Нет

Аудио #6
Идентификатор : 7
Формат : AC-3
Формат/Информация : Audio Coding 3
Коммерческое название : Dolby Digital
Идентификатор кодека : A_AC3
Продолжительность : 2 ч. 21 м.
Вид битрейта : Постоянный
Битрейт : 192 Кбит/сек
Каналы : 2 канала
ChannelLayout : L R
Частота : 48,0 КГц
Частота кадров : 31,250 кадров/сек (1536 SPF)
Битовая глубина : 16 бит
Метод сжатия : С потерями
Размер потока : 195 Мбайт (1%)
Заголовок : MVO, 1+1
Язык : Ukrainian
ServiceKind/String : Complete Main
Default : Нет
Forced : Нет

Аудио #7
Идентификатор : 8
Формат : AC-3
Формат/Информация : Audio Coding 3
Коммерческое название : Dolby Digital
Идентификатор кодека : A_AC3
Продолжительность : 2 ч. 21 м.
Вид битрейта : Постоянный
Битрейт : 192 Кбит/сек
Каналы : 2 канала
ChannelLayout : L R
Частота : 48,0 КГц
Частота кадров : 31,250 кадров/сек (1536 SPF)
Битовая глубина : 16 бит
Метод сжатия : С потерями
Размер потока : 195 Мбайт (1%)
Заголовок : MVO, Интер
Язык : Ukrainian
ServiceKind/String : Complete Main
Default : Нет
Forced : Нет

Аудио #8
Идентификатор : 9
Формат : DTS
Формат/Информация : Digital Theater Systems
Идентификатор кодека : A_DTS
Продолжительность : 2 ч. 21 м.
Вид битрейта : Постоянный
Битрейт : 1509 Кбит/сек
Каналы : 6 каналов
ChannelLayout : C L R Ls Rs LFE
Частота : 48,0 КГц
Частота кадров : 93,750 кадра/сек (512 SPF)
Битовая глубина : 16 бит
Метод сжатия : С потерями
Размер потока : 1,49 Гбайт (9%)
Язык : English
Default : Нет
Forced : Нет

Текст #1
Идентификатор : 10
Формат : UTF-8
Идентификатор кодека : S_TEXT/UTF8
Идентификатор кодека/Информация : UTF-8 Plain Text
Заголовок : captions
Язык : Russian
Default : Да
Forced : Нет

Текст #2
Идентификатор : 11
Формат : UTF-8
Идентификатор кодека : S_TEXT/UTF8
Идентификатор кодека/Информация : UTF-8 Plain Text
Язык : Russian
Default : Нет
Forced : Нет

Текст #3
Идентификатор : 12
Формат : UTF-8
Идентификатор кодека : S_TEXT/UTF8
Идентификатор кодека/Информация : UTF-8 Plain Text
Язык : Ukrainian
Default : Нет
Forced : Нет

Текст #4
Идентификатор : 13
Формат : UTF-8
Идентификатор кодека : S_TEXT/UTF8
Идентификатор кодека/Информация : UTF-8 Plain Text
Язык : English
Default : Нет
Forced : Нет

Текст #5
Идентификатор : 14
Формат : UTF-8
Идентификатор кодека : S_TEXT/UTF8
Идентификатор кодека/Информация : UTF-8 Plain Text
Заголовок : SDH
Язык : English
Default : Нет
Forced : Нет

Меню
00:00:00.000 : en:Under Covers Prologue
00:01:40.100 : en:Aunt Marge's Big Mistake
00:06:36.229 : en:The Knight Bus
00:12:45.931 : en:The Leaky Cauldron
00:14:52.516 : en:The Monster Book of Monsters
00:16:12.513 : en:In Grave Danger
00:18:56.218 : en:The Dementor
00:23:50.387 : en:Welcome and Warning
00:28:50.729 : en:Tea Leaves
00:31:21.838 : en:Buckbeak
00:38:50.161 : en:Boggart in the Wardrobe
00:44:45.307 : en:Talent for Trouble
00:47:37.813 : en:Flight of the Fat Lady
00:49:39.935 : en:Substitute Teacher
00:53:42.844 : en:Grim Defeat
00:57:28.403 : en:The Marauder's Map
01:01:23.721 : en:Who's There
01:03:22.924 : en:I Hope He Finds Me
01:07:10.985 : en:The Patronus
01:11:53.475 : en:Seeing the Impossible
01:19:10.078 : en:Professor Trelawney's Prediction
01:22:29.945 : en:Witnesses to an Execution
01:27:30.870 : en:The Whomping Willow
01:30:13.366 : en:Sirius Black
01:34:19.028 : en:Peter Pettigrew
01:36:56.894 : en:Friends Become Foes
01:42:24.471 : en:The Dementor's Kiss
01:45:40.334 : en:Hermione's Secret
01:50:03.597 : en:Onlookers to the Rescue
01:55:33.343 : en:Saving Lives
02:00:07.408 : en:Truly Seen, Truly Free
02:03:16.055 : en:Two Places at Once
02:06:02.513 : en:Mischief Managed
02:08:42.923 : en:The Firebolt
02:09:47.404 : en:End Credits Map

скриншот   скриншот   скриншот   скриншот  


Гарри Поттер и кубок огня / Harry Potter and the Goblet of Fire
Год выпуска: 2005

Страна: Великобритания, США

Жанр: Фэнтези, детектив, приключения

Продолжительность: 02:37:05

Перевод: Дублированный, профессиональный (многоголосый), профессиональный (двухголосый), авторский (одноголосый)

Субтитры: Русские, украинские, английские

Режиссер: Майк Ньюэлл

rating

В ролях: Дэниэл Рэдклифф, Эмма Уотсон, Руперт Гринт, Алан Рикман, Эрик Сайкес, Тимоти Сполл, Дэвид Теннант, Марк Уильямс, Джеймс Фелпс, Оливер Фелпс, Бонни Райт, Джефф Роул, Роберт Паттинсон, Джейсон Айзекс, Том Фелтон

Описание: Летом Гарри вместе со своими друзьями отправляется на Чемпионат мира по квиддичу. Неожиданно ночью на их палатный городок нападают Пожиратели смерти (соратники Волан-де-Морта). Вокруг сплошная паника, но работникам Министерства магии удается прогнать злодеев. Однако, устрашающая Черная метка, оставленная в небе одним из пожирателей, приводит всех в ужас. Ведь это может означать лишь одно — их лорд жив! Очередной год обучения начинается с того, что в школе Хогвартс будет происходить Турнир Трёх Волшебников. К участию допускаются ученики, достигшие 17 лет. Кубок огня выбирает троих достойных претендентов. Но в последнее мгновение он выбрасывает записку с еще одним именем — Гарри Поттер. И с этого момента жизнь Гарри в большой опасности, ведь ему нужно пройти очень сложные испытания. Чего будет стоить для Гарри его участие в турнире?
Качество: BDRip 1080p
Формат: MKV
Видео: MPEG-4 AVC, 9658 Кбит/сек, 1920х800
Аудио#1: Русский, AC-3, 6 ch, 448 Кбит/с - Dub (Blu-ray EUR)
Аудио#2: Русский, АС3, 6 ch, 384 Кбит/с - DVO (Tycoon)
Аудио#3: Русский, АС3, 6 ch, 448 Кбит/с - DVO (Гланц и Королёва)
Аудио#4: Русский, DTS, 6 ch, 755 Кбит/сек - AVO (Рябов)
Аудио#5: Украинский, AC-3, 2 ch, 192 Кбит/с - MVO (Новый канал)
Аудио#6: Украинский, AC-3, 2 ch, 192 Кбит/с - MVO (Интер)
Аудио#7: Английский, DTS, 6 ch, 1509 Кбит/сек

Видео
Идентификатор : 1
Формат : AVC
Формат/Информация : Advanced Video Codec
Профиль формата : High@L4
Настройки формата : CABAC / 5 Ref Frames
Параметр CABAC формата : Да
Параметр RefFrames формата : 5 кадров
Идентификатор кодека : V_MPEG4/ISO/AVC
Продолжительность : 2 ч. 37 м.
Битрейт : 9658 Кбит/сек
Ширина : 1920 пикселей
Высота : 800 пикселей
Соотношение сторон : 2,40:1
Режим частоты кадров : Постоянный
Частота кадров : 23,976 (24000/1001) кадра/сек
Цветовое пространство : YUV
Субдискретизация насыщенности : 4:2:0
Битовая глубина : 8 бит
Тип развёртки : Прогрессивная
Бит/(Пиксели*Кадры) : 0.262
Размер потока : 10,6 Гбайт (70%)
Заголовок : Release for HDCLUB
Библиотека кодирования : x264 core 138 r2358kMod 9e941d1
Настройки программы : cabac=1 / ref=5 / deblock=1:-3:-3 / analyse=0x3:0x133 / me=umh / subme=10 / psy=1 / fade_compensate=0.00 / psy_rd=1.08:0.00 / mixed_ref=1 / me_range=48 / chroma_me=1 / trellis=2 / 8x8dct=1 / cqm=0 / deadzone=21,11 / fast_pskip=0 / chroma_qp_offset=-2 / threads=12 / lookahead_threads=2 / sliced_threads=0 / nr=0 / decimate=1 / interlaced=0 / bluray_compat=0 / constrained_intra=0 / bframes=7 / b_pyramid=2 / b_adapt=2 / b_bias=0 / direct=3 / weightb=1 / open_gop=0 / weightp=2 / keyint=250 / keyint_min=23 / scenecut=40 / intra_refresh=0 / rc=crf / mbtree=0 / crf=17.0000 / qcomp=0.60 / qpmin=0 / qpmax=69 / qpstep=4 / ip_ratio=1.30 / pb_ratio=1.20 / aq=1:0.85
Язык : English
Default : Да
Forced : Нет

Аудио #1
Идентификатор : 2
Формат : AC-3
Формат/Информация : Audio Coding 3
Коммерческое название : Dolby Digital
Идентификатор кодека : A_AC3
Продолжительность : 2 ч. 37 м.
Вид битрейта : Постоянный
Битрейт : 448 Кбит/сек
Каналы : 6 каналов
ChannelLayout : L R C LFE Ls Rs
Частота : 48,0 КГц
Частота кадров : 31,250 кадров/сек (1536 SPF)
Битовая глубина : 16 бит
Метод сжатия : С потерями
Размер потока : 503 Мбайт (3%)
Заголовок : Dub, Blu-ray CEE
Язык : Russian
ServiceKind/String : Complete Main
Default : Да
Forced : Нет

Аудио #2
Идентификатор : 3
Формат : AC-3
Формат/Информация : Audio Coding 3
Коммерческое название : Dolby Digital
Идентификатор кодека : A_AC3
Продолжительность : 2 ч. 37 м.
Вид битрейта : Постоянный
Битрейт : 384 Кбит/сек
Каналы : 6 каналов
ChannelLayout : L R C LFE Ls Rs
Частота : 48,0 КГц
Частота кадров : 31,250 кадров/сек (1536 SPF)
Битовая глубина : 16 бит
Метод сжатия : С потерями
Размер потока : 431 Мбайт (3%)
Заголовок : DVO, Tycoon
Язык : Russian
ServiceKind/String : Complete Main
Default : Нет
Forced : Нет

Аудио #3
Идентификатор : 4
Формат : AC-3
Формат/Информация : Audio Coding 3
Коммерческое название : Dolby Digital
Идентификатор кодека : A_AC3
Продолжительность : 2 ч. 37 м.
Вид битрейта : Постоянный
Битрейт : 448 Кбит/сек
Каналы : 6 каналов
ChannelLayout : L R C LFE Ls Rs
Частота : 48,0 КГц
Частота кадров : 31,250 кадров/сек (1536 SPF)
Битовая глубина : 16 бит
Метод сжатия : С потерями
Размер потока : 503 Мбайт (3%)
Заголовок : DVO, Гланц и Королёва
Язык : Russian
ServiceKind/String : Complete Main
Default : Нет
Forced : Нет

Аудио #4
Идентификатор : 5
Формат : DTS
Формат/Информация : Digital Theater Systems
Идентификатор кодека : A_DTS
Продолжительность : 2 ч. 37 м.
Вид битрейта : Постоянный
Битрейт : 755 Кбит/сек
Каналы : 6 каналов
ChannelLayout : C L R Ls Rs LFE
Частота : 48,0 КГц
Частота кадров : 93,750 кадра/сек (512 SPF)
Битовая глубина : 24 бит
Метод сжатия : С потерями
Размер потока : 848 Мбайт (5%)
Заголовок : VO, Рябов
Язык : Russian
Default : Нет
Forced : Нет

Аудио #5
Идентификатор : 6
Формат : AC-3
Формат/Информация : Audio Coding 3
Коммерческое название : Dolby Digital
Идентификатор кодека : A_AC3
Продолжительность : 2 ч. 37 м.
Вид битрейта : Постоянный
Битрейт : 192 Кбит/сек
Каналы : 2 канала
ChannelLayout : L R
Частота : 48,0 КГц
Частота кадров : 31,250 кадров/сек (1536 SPF)
Битовая глубина : 16 бит
Метод сжатия : С потерями
Размер потока : 216 Мбайт (1%)
Заголовок : MVO, Новый канал
Язык : Ukrainian
ServiceKind/String : Complete Main
Default : Нет
Forced : Нет

Аудио #6
Идентификатор : 7
Формат : AC-3
Формат/Информация : Audio Coding 3
Коммерческое название : Dolby Digital
Идентификатор кодека : A_AC3
Продолжительность : 2 ч. 37 м.
Вид битрейта : Постоянный
Битрейт : 192 Кбит/сек
Каналы : 2 канала
ChannelLayout : L R
Частота : 48,0 КГц
Частота кадров : 31,250 кадров/сек (1536 SPF)
Битовая глубина : 16 бит
Метод сжатия : С потерями
Размер потока : 216 Мбайт (1%)
Заголовок : MVO, Интер
Язык : Ukrainian
ServiceKind/String : Complete Main
Default : Нет
Forced : Нет

Аудио #7
Идентификатор : 8
Формат : DTS
Формат/Информация : Digital Theater Systems
Идентификатор кодека : A_DTS
Продолжительность : 2 ч. 37 м.
Вид битрейта : Постоянный
Битрейт : 1509 Кбит/сек
Каналы : 6 каналов
ChannelLayout : C L R Ls Rs LFE
Частота : 48,0 КГц
Частота кадров : 93,750 кадра/сек (512 SPF)
Битовая глубина : 16 бит
Метод сжатия : С потерями
Размер потока : 1,66 Гбайт (11%)
Язык : English
Default : Нет
Forced : Нет

Текст #1
Идентификатор : 9
Формат : UTF-8
Идентификатор кодека : S_TEXT/UTF8
Идентификатор кодека/Информация : UTF-8 Plain Text
Заголовок : captions
Язык : Russian
Default : Да
Forced : Нет

Текст #2
Идентификатор : 10
Формат : UTF-8
Идентификатор кодека : S_TEXT/UTF8
Идентификатор кодека/Информация : UTF-8 Plain Text
Язык : Russian
Default : Нет
Forced : Нет

Текст #3
Идентификатор : 11
Формат : UTF-8
Идентификатор кодека : S_TEXT/UTF8
Идентификатор кодека/Информация : UTF-8 Plain Text
Язык : Ukrainian
Default : Нет
Forced : Нет

Текст #4
Идентификатор : 12
Формат : UTF-8
Идентификатор кодека : S_TEXT/UTF8
Идентификатор кодека/Информация : UTF-8 Plain Text
Язык : English
Default : Нет
Forced : Нет

Текст #5
Идентификатор : 13
Формат : UTF-8
Идентификатор кодека : S_TEXT/UTF8
Идентификатор кодека/Информация : UTF-8 Plain Text
Заголовок : SDH
Язык : English
Default : Нет
Forced : Нет

Меню
00:00:00.000 : en:The Riddle House
00:03:46.559 : en:The Hungrian Horntail
00:06:09.369 : en:Sirius Conversation
00:09:50.089 : en:Rita Keeter
00:13:45.324 : en:Let Events Unfold
00:19:14.987 : en:The Four Champions
00:23:09.388 : en:The Unforgivable Curses
00:29:01.573 : en:The Goblet of Fire
00:36:26.684 : en:The Triwizard Tournament
00:39:05.009 : en:The Dark Mark
00:41:32.489 : en:The Quidditch World Cup
00:45:36.400 : en:The Portkey
00:49:07.778 : en:Best Foot Forward
00:54:06.243 : en:The First Task
01:02:46.596 : en:Tranforming Malfoy
01:09:12.982 : en:An Unexpected Challenge
01:14:43.979 : en:The Yule Ball
01:22:27.609 : en:The Egg's Clue
01:30:34.762 : en:The Second Task
01:39:29.296 : en:Never Whole Again
01:42:42.489 : en:The Pensieve
01:47:22.936 : en:Dreams and Suspicions
01:50:19.279 : en:The Third Task
01:58:54.460 : en:Flesh, Blood and Bone
02:02:02.315 : en:The Death Eaters
02:06:36.589 : en:Priori Incantatem
02:10:01.627 : en:Veritaserum
02:17:38.083 : en:Parting Ways
02:23:48.620 : en:End Credits

скриншот   скриншот   скриншот   скриншот  


Гарри Поттер и орден Феникса / Harry Potter and the Order of the Phoenix
Год выпуска: 2007

Страна: США

Жанр: Фэнтези, приключения

Продолжительность: 02:18:14

Перевод: Дублированный, профессиональный (двухголосый), авторский (одноголосый)

Субтитры: Русские, украинские, английские

Режиссер: Дэвид Йейтс

rating

В ролях: Дэниэл Рэдклифф, Эмма Уотсон, Руперт Гринт, Джейсон Бойд, Ричард Маклин, Гарри Меллинг, Кэтрин Хантер, Майлз Джапп, Фиона Шоу, Ричард Гриффитс, Адриан Роулинз, Джеральдин Соммервиль, Роберт Паттинсон, Рэйф Файнс, Наталия Тена, Брендан Глисон, Джордж Харрис, Питер Картрайт, Бриджитт Миллар, Гэри Олдман, Марк Уильямс, Эванна Линч, Девон Мюррэй, Афшан Азад

Описание: Гарри проводит свой пятый год обучения в школе Хогвартс и обнаруживает, что многие из членов волшебного сообщества отрицают сам факт недавнего состязания юного волшебника с воплощением вселенского зла Волан-де-Мортом, делая вид, что не имеют ни малейшего представления о том, что злодей вернулся. Опасаясь, что почтенный глава Хогвартса Альбус Дамблдор распространяет лживые слухи о возвращении Волан-де-Морта, стремясь подорвать авторитет Министра Магии Корнелиуса Фаджа и в дальнейшем занять его место, Корнелиус назначает нового профессора защиты от темных искусств, который должен будет пристально следить за Дамблдором и студентами Хогвартса. Но одобренный министерством курс лекций по защитной магии профессора Долорес Амбридж оказывается на практике абсолютно бесполезным — юные волшебники просто неспособны противостоять действию темных сил, угрожающих им и всему волшебному сообществу. И тогда, по настоянию своих друзей Гермионы и Рона, Гарри берет инициативу в свои руки. Тайно встречаясь с небольшой группой студентов, называющей себя Отрядом Дамблдора, Гарри обучает их самозащите от темных сил, готовя отважных волшебников к необычной схватке, которая ждет их впереди.
Качество: BDRip 1080p
Формат: MKV
Видео: MPEG-4 AVC, 10,2 Мбит/сек, 1920х798
Аудио#1: Русский, AC-3, 6 ch, 640 Кбит/с - Dub (Blu-ray EUR)
Аудио#2: Русский, AC-3, 6 ch, 448 Кбит/с - DVO (Гланц и Королёва)
Аудио#3: Русский, AC-3, 6 ch, 448 Кбит/сек - AVO (Рябов)
Аудио#4: Русский, AC-3, 6 ch, 448 Кбит/сек - VO (Медведев)
Аудио#5: Украинский, AC-3, 6 ch, 640 Кбит/с - Dub (Blu-ray EUR)
Аудио#6: Английский, DTS, 6 ch, 1509 Кбит/сек
Видео
Идентификатор : 1
Формат : AVC
Формат/Информация : Advanced Video Codec
Профиль формата : High@L4
Настройки формата : CABAC / 5 Ref Frames
Параметр CABAC формата : Да
Параметр RefFrames формата : 5 кадров
Идентификатор кодека : V_MPEG4/ISO/AVC
Продолжительность : 2 ч. 18 м.
Битрейт : 10,2 Мбит/сек
Ширина : 1920 пикселей
Высота : 798 пикселей
Соотношение сторон : 2,40:1
Режим частоты кадров : Постоянный
Частота кадров : 23,976 (24000/1001) кадра/сек
Цветовое пространство : YUV
Субдискретизация насыщенности : 4:2:0
Битовая глубина : 8 бит
Тип развёртки : Прогрессивная
Бит/(Пиксели*Кадры) : 0.277
Размер потока : 9,82 Гбайт (70%)
Заголовок : Release for HDCLUB
Библиотека кодирования : x264 core 138 r2358kMod 9e941d1
Настройки программы : cabac=1 / ref=5 / deblock=1:-3:-3 / analyse=0x3:0x133 / me=umh / subme=10 / psy=1 / fade_compensate=0.00 / psy_rd=1.08:0.00 / mixed_ref=1 / me_range=48 / chroma_me=1 / trellis=2 / 8x8dct=1 / cqm=0 / deadzone=21,11 / fast_pskip=0 / chroma_qp_offset=-2 / threads=12 / lookahead_threads=2 / sliced_threads=0 / nr=0 / decimate=1 / interlaced=0 / bluray_compat=0 / constrained_intra=0 / bframes=7 / b_pyramid=2 / b_adapt=2 / b_bias=0 / direct=3 / weightb=1 / open_gop=0 / weightp=2 / keyint=250 / keyint_min=23 / scenecut=40 / intra_refresh=0 / rc=crf / mbtree=0 / crf=17.2500 / qcomp=0.60 / qpmin=0 / qpmax=69 / qpstep=4 / ip_ratio=1.30 / pb_ratio=1.20 / aq=1:0.85
Язык : English
Default : Да
Forced : Нет

Аудио #1
Идентификатор : 2
Формат : AC-3
Формат/Информация : Audio Coding 3
Коммерческое название : Dolby Digital
Идентификатор кодека : A_AC3
Продолжительность : 2 ч. 18 м.
Вид битрейта : Постоянный
Битрейт : 640 Кбит/сек
Каналы : 6 каналов
ChannelLayout : L R C LFE Ls Rs
Частота : 48,0 КГц
Частота кадров : 31,250 кадров/сек (1536 SPF)
Битовая глубина : 16 бит
Метод сжатия : С потерями
Размер потока : 633 Мбайт (4%)
Заголовок : Dub, Blu-ray CEE
Язык : Russian
ServiceKind/String : Complete Main
Default : Да
Forced : Нет

Аудио #2
Идентификатор : 3
Формат : AC-3
Формат/Информация : Audio Coding 3
Коммерческое название : Dolby Digital
Идентификатор кодека : A_AC3
Продолжительность : 2 ч. 18 м.
Вид битрейта : Постоянный
Битрейт : 448 Кбит/сек
Каналы : 6 каналов
ChannelLayout : L R C LFE Ls Rs
Частота : 48,0 КГц
Частота кадров : 31,250 кадров/сек (1536 SPF)
Битовая глубина : 16 бит
Метод сжатия : С потерями
Размер потока : 443 Мбайт (3%)
Заголовок : DVO, Гланц и Королёва
Язык : Russian
ServiceKind/String : Complete Main
Default : Нет
Forced : Нет

Аудио #3
Идентификатор : 4
Формат : AC-3
Формат/Информация : Audio Coding 3
Коммерческое название : Dolby Digital
Идентификатор кодека : A_AC3
Продолжительность : 2 ч. 18 м.
Вид битрейта : Постоянный
Битрейт : 448 Кбит/сек
Каналы : 6 каналов
ChannelLayout : L R C LFE Ls Rs
Частота : 48,0 КГц
Частота кадров : 31,250 кадров/сек (1536 SPF)
Битовая глубина : 16 бит
Метод сжатия : С потерями
Размер потока : 443 Мбайт (3%)
Заголовок : VO, Рябов
Язык : Russian
ServiceKind/String : Complete Main
Default : Нет
Forced : Нет

Аудио #4
Идентификатор : 5
Формат : AC-3
Формат/Информация : Audio Coding 3
Коммерческое название : Dolby Digital
Идентификатор кодека : A_AC3
Продолжительность : 2 ч. 18 м.
Вид битрейта : Постоянный
Битрейт : 448 Кбит/сек
Каналы : 6 каналов
ChannelLayout : L R C LFE Ls Rs
Частота : 48,0 КГц
Частота кадров : 31,250 кадров/сек (1536 SPF)
Битовая глубина : 16 бит
Метод сжатия : С потерями
Размер потока : 443 Мбайт (3%)
Заголовок : VO, Медведев
Язык : Russian
ServiceKind/String : Complete Main
Default : Нет
Forced : Нет

Аудио #5
Идентификатор : 6
Формат : AC-3
Формат/Информация : Audio Coding 3
Коммерческое название : Dolby Digital
Идентификатор кодека : A_AC3
Продолжительность : 2 ч. 18 м.
Вид битрейта : Постоянный
Битрейт : 640 Кбит/сек
Каналы : 6 каналов
ChannelLayout : L R C LFE Ls Rs
Частота : 48,0 КГц
Частота кадров : 31,250 кадров/сек (1536 SPF)
Битовая глубина : 16 бит
Метод сжатия : С потерями
Размер потока : 633 Мбайт (4%)
Заголовок : Dub, Blu-ray CEE
Язык : Ukrainian
ServiceKind/String : Complete Main
Default : Нет
Forced : Нет

Аудио #6
Идентификатор : 7
Формат : DTS
Формат/Информация : Digital Theater Systems
Идентификатор кодека : A_DTS
Продолжительность : 2 ч. 18 м.
Вид битрейта : Постоянный
Битрейт : 1509 Кбит/сек
Каналы : 6 каналов
ChannelLayout : C L R Ls Rs LFE
Частота : 48,0 КГц
Частота кадров : 93,750 кадра/сек (512 SPF)
Битовая глубина : 16 бит
Метод сжатия : С потерями
Размер потока : 1,46 Гбайт (10%)
Язык : English
Default : Нет
Forced : Нет

Текст #1
Идентификатор : 8
Формат : UTF-8
Идентификатор кодека : S_TEXT/UTF8
Идентификатор кодека/Информация : UTF-8 Plain Text
Заголовок : captions
Язык : Russian
Default : Да
Forced : Нет

Текст #2
Идентификатор : 9
Формат : UTF-8
Идентификатор кодека : S_TEXT/UTF8
Идентификатор кодека/Информация : UTF-8 Plain Text
Язык : Russian
Default : Нет
Forced : Нет

Текст #3
Идентификатор : 10
Формат : UTF-8
Идентификатор кодека : S_TEXT/UTF8
Идентификатор кодека/Информация : UTF-8 Plain Text
Язык : Ukrainian
Default : Нет
Forced : Нет

Текст #4
Идентификатор : 11
Формат : UTF-8
Идентификатор кодека : S_TEXT/UTF8
Идентификатор кодека/Информация : UTF-8 Plain Text
Язык : English
Default : Нет
Forced : Нет

Текст #5
Идентификатор : 12
Формат : UTF-8
Идентификатор кодека : S_TEXT/UTF8
Идентификатор кодека/Информация : UTF-8 Plain Text
Заголовок : SDH
Язык : English
Default : Нет
Forced : Нет

Меню
00:00:00.000 : en:Dudley Demented
00:04:50.957 : en:The Advance Guard
00:10:16.782 : en:Number Twelve, Grimmauld Place
00:15:19.919 : en:The Order of the Phoenix
00:17:43.228 : en:The Ministry of Magic
00:20:52.417 : en:The Hearing
00:25:33.532 : en:The Originals
00:28:07.352 : en:Luna Lovegood
00:30:20.985 : en:Preserve, Perfect and Prune
00:34:53.925 : en:Professor Umbridge's Class
00:37:41.092 : en:Detention With Dolores
00:41:48.506 : en:Thestrals and Sympathy
00:44:57.528 : en:The Hogwarts High Inquisitor
00:50:57.387 : en:In the Hog's Head
00:56:37.394 : en:Dumbledore's Army
01:03:28.638 : en:Under the Mistletoe
01:07:39.055 : en:Occlumency
01:11:16.105 : en:House of Black
01:16:30.252 : en:Hagrid's Tale
01:19:16.585 : en:Unquiet Escape
01:25:30.959 : en:Grawp
01:31:30.651 : en:Snape's Worst Memory
01:34:49.850 : en:O.W.L.S.
01:37:42.356 : en:Out of the Fire
01:41:40.260 : en:Fight and Flight
01:45:59.353 : en:The Department of Mysteries
01:48:37.177 : en:Beyond the Veil
01:52:40.920 : en:Side by Side
01:57:30.710 : en:Wizards Duel
02:03:33.239 : en:The Lost Prophecy
02:05:50.709 : en:A Way of Coming Back
02:08:26.865 : en:End Credits

скриншот   скриншот   скриншот   скриншот  


Гарри Поттер и Принц-полукровка / Harry Potter and the Half-Blood Prince
Год выпуска: 2009

Страна: США, Великобритания

Жанр: Фэнтези, приключения

Продолжительность: 02:33:31

Перевод: Дублированный, профессиональный (двухголосый), авторский (одноголосый)

Субтитры: Русские, украинские, английские

Режиссер: Дэвид Йейтс

rating

В ролях: Дэниэл Рэдклифф, Руперт Гринт, Эмма Уотсон, Джим Бродбент, Эларика Галлахер, Робби Колтрейн, Майкл Гэмбон, Мэгги Смит, Алан Рикман, Бонни Райт, Эванна Линч, Джеральдин Сомервилль, Джемма Джонс, Девон Мюррэй, Наталия Тена, Афшан Азад

Описание: Теперь не только мир волшебников, но и мир маглов ощущает на себе все возрастающую силу Волан-де-Морта, а Хогвартс уже никак не назовешь надежным убежищем, каким он был раньше. Гарри подозревает, что в самом замке затаилась некая опасность, но Дамблдор больше сосредоточен на том, чтобы подготовить его к финальной схватке, которая, как он знает, уже не за горами. Вместе они пытаются разгадать секрет бессмертия Волан-де-Морта, а для этого Дамблдор приглашает на должность преподавателя по зельеварению своего старинного друга и коллегу — профессора Горация Слизнорта, который обожает устраивать вечеринки для избранных и гордится своими обширными связями в высших кругах. Но этот бонвиван и не подозревает, что как раз от него Дамблдор надеется заполучить самую важную информацию о крестражах. Тем временем учеников атакуют самые разные враги, а подростковые эмоции хлещут через край. Гарри начинает понимать, что становится все более неравнодушным к Джинни, однако, и Дин Томас тоже. А Лаванда Браун вбила себе в голову, что Рон — тот самый единственный, которого она ждет, да вот только не учла волшебного эффекта шоколадных конфет Ромильды Вейн! Ну и, наконец, Гермиона пылает жгучей ревностью, но старается не показывать своих чувств. Пока романтические отношения расцветают, лишь один ученик остается в стороне. Он твердо намерен оставить свою метку, темную метку. Любовь витает в воздухе, но впереди ждет беда, и Хогвартс, возможно, уже никогда не будет прежним
Качество: BDRip 1080p
Формат: MKV
Видео: MPEG-4 AVC, 11,4 Мбит/сек, 1920х800
Аудио#1: Русский, AC-3, 6 ch, 448 Кбит/с - Dub (Blu-ray EUR)
Аудио#2: Русский, AC-3, 6 ch, 755 Кбит/с - DVO (Нордиск)
Аудио#3: Русский, AC-3, 6 ch, 448 Кбит/сек - AVO (Сербин)
Аудио#4: Украинский, AC-3, 6 ch, 448 Кбит/с - Dub (Blu-ray EUR)
Аудио#5: Украинский, AC-3, 2 ch, 192 Кбит/с - MVO (Новый канал)
Аудио#6: Английский, DTS, 6 ch, 1509 Кбит/сек
Видео
Идентификатор : 1
Формат : AVC
Формат/Информация : Advanced Video Codec
Профиль формата : High@L4.1
Настройки формата : CABAC / 5 Ref Frames
Параметр CABAC формата : Да
Параметр RefFrames формата : 5 кадров
Идентификатор кодека : V_MPEG4/ISO/AVC
Продолжительность : 2 ч. 33 м.
Битрейт : 11,4 Мбит/сек
Ширина : 1920 пикселей
Высота : 800 пикселей
Соотношение сторон : 2,40:1
Режим частоты кадров : Постоянный
Частота кадров : 23,976 (24000/1001) кадра/сек
Цветовое пространство : YUV
Субдискретизация насыщенности : 4:2:0
Битовая глубина : 8 бит
Тип развёртки : Прогрессивная
Бит/(Пиксели*Кадры) : 0.310
Размер потока : 12,3 Гбайт (74%)
Заголовок : Release for HDCLUB
Библиотека кодирования : x264 core 142 r2409+42 04be48a tMod [8-bit@4:2:0 X86_64]
Настройки программы : cabac=1 / ref=5 / deblock=1:-2:-2 / analyse=0x3:0x113 / me=umh / subme=11 / psy=1 / fade_compensate=0.00 / psy_rd=1.00:0.00 / mixed_ref=1 / me_range=48 / chroma_me=1 / trellis=2 / 8x8dct=1 / cqm=0 / deadzone=21,11 / fast_pskip=1 / chroma_qp_offset=-2 / threads=12 / lookahead_threads=2 / sliced_threads=0 / nr=0 / decimate=1 / interlaced=0 / bluray_compat=0 / constrained_intra=0 / fgo=0 / bframes=9 / b_pyramid=2 / b_adapt=2 / b_bias=0 / direct=1 / weightb=1 / open_gop=0 / weightp=2 / keyint=250 / keyint_min=23 / scenecut=40 / intra_refresh=0 / rc_lookahead=60 / rc=crf / mbtree=0 / crf=17.5000 / qcomp=0.70 / qpmin=0:0:0 / qpmax=69:69:69 / qpstep=4 / vbv_maxrate=62500 / vbv_bufsize=78125 / crf_max=0.0 / nal_hrd=none / filler=0 / ip_ratio=1.40 / pb_ratio=1.30 / aq=4:0.80 / aq-sensitivity=11.00 / aq-factor=1.00:1.00:1.00 / aq2=1:0.60 / aq2-sensitivity=9.00 / aq2-factor=1.00:1.00:1.00 / aq3=1:[0.60:0.60]:[0.60:0.60]:[0.60:0.60]:[0.60:0.60] / aq3-sensitivity=10.00 / aq3-factor=[1.00:1.00]:[1.00:1.00]:[1.00:1.00] / aq3-boundary=192:64:24
Язык : English
Default : Да
Forced : Нет
Цветовой диапазон : Limited
Основные цвета : BT.709
Характеристики трансфера : BT.709
Коэффициенты матрицы : BT.709

Аудио #1
Идентификатор : 2
Формат : AC-3
Формат/Информация : Audio Coding 3
Коммерческое название : Dolby Digital
Идентификатор кодека : A_AC3
Продолжительность : 2 ч. 33 м.
Вид битрейта : Постоянный
Битрейт : 448 Кбит/сек
Каналы : 6 каналов
ChannelLayout : L R C LFE Ls Rs
Частота : 48,0 КГц
Частота кадров : 31,250 кадров/сек (1536 SPF)
Битовая глубина : 16 бит
Метод сжатия : С потерями
Размер потока : 492 Мбайт (3%)
Заголовок : Dub, Blu-ray CEE
Язык : Russian
ServiceKind/String : Complete Main
Default : Да
Forced : Нет

Аудио #2
Идентификатор : 3
Формат : DTS
Формат/Информация : Digital Theater Systems
Идентификатор кодека : A_DTS
Продолжительность : 2 ч. 33 м.
Вид битрейта : Постоянный
Битрейт : 755 Кбит/сек
Каналы : 6 каналов
ChannelLayout : C L R Ls Rs LFE
Частота : 48,0 КГц
Частота кадров : 93,750 кадра/сек (512 SPF)
Битовая глубина : 24 бит
Метод сжатия : С потерями
Размер потока : 829 Мбайт (5%)
Заголовок : DVO, Нордиск
Язык : Russian
Default : Нет
Forced : Нет

Аудио #3
Идентификатор : 4
Формат : AC-3
Формат/Информация : Audio Coding 3
Коммерческое название : Dolby Digital
Идентификатор кодека : A_AC3
Продолжительность : 2 ч. 33 м.
Вид битрейта : Постоянный
Битрейт : 448 Кбит/сек
Каналы : 6 каналов
ChannelLayout : L R C LFE Ls Rs
Частота : 48,0 КГц
Частота кадров : 31,250 кадров/сек (1536 SPF)
Битовая глубина : 16 бит
Метод сжатия : С потерями
Размер потока : 492 Мбайт (3%)
Заголовок : VO, Сербин
Язык : Russian
ServiceKind/String : Complete Main
Default : Нет
Forced : Нет

Аудио #4
Идентификатор : 5
Формат : AC-3
Формат/Информация : Audio Coding 3
Коммерческое название : Dolby Digital
Идентификатор кодека : A_AC3
Продолжительность : 2 ч. 33 м.
Вид битрейта : Постоянный
Битрейт : 448 Кбит/сек
Каналы : 6 каналов
ChannelLayout : L R C LFE Ls Rs
Частота : 48,0 КГц
Частота кадров : 31,250 кадров/сек (1536 SPF)
Битовая глубина : 16 бит
Метод сжатия : С потерями
Размер потока : 492 Мбайт (3%)
Заголовок : Dub, Blu-ray CEE
Язык : Ukrainian
ServiceKind/String : Complete Main
Default : Нет
Forced : Нет

Аудио #5
Идентификатор : 6
Формат : AC-3
Формат/Информация : Audio Coding 3
Коммерческое название : Dolby Digital
Идентификатор кодека : A_AC3
Продолжительность : 2 ч. 33 м.
Вид битрейта : Постоянный
Битрейт : 192 Кбит/сек
Каналы : 2 канала
ChannelLayout : L R
Частота : 48,0 КГц
Частота кадров : 31,250 кадров/сек (1536 SPF)
Битовая глубина : 16 бит
Метод сжатия : С потерями
Размер потока : 211 Мбайт (1%)
Заголовок : MVO, Новый канал
Язык : Ukrainian
ServiceKind/String : Complete Main
Default : Нет
Forced : Нет

Аудио #6
Идентификатор : 7
Формат : DTS
Формат/Информация : Digital Theater Systems
Идентификатор кодека : A_DTS
Продолжительность : 2 ч. 33 м.
Вид битрейта : Постоянный
Битрейт : 1509 Кбит/сек
Каналы : 6 каналов
ChannelLayout : C L R Ls Rs LFE
Частота : 48,0 КГц
Частота кадров : 93,750 кадра/сек (512 SPF)
Битовая глубина : 16 бит
Метод сжатия : С потерями
Размер потока : 1,62 Гбайт (10%)
Язык : English
Default : Нет
Forced : Нет

Текст #1
Идентификатор : 8
Формат : UTF-8
Идентификатор кодека : S_TEXT/UTF8
Идентификатор кодека/Информация : UTF-8 Plain Text
Заголовок : captions
Язык : Russian
Default : Да
Forced : Нет

Текст #2
Идентификатор : 9
Формат : UTF-8
Идентификатор кодека : S_TEXT/UTF8
Идентификатор кодека/Информация : UTF-8 Plain Text
Язык : Russian
Default : Нет
Forced : Нет

Текст #3
Идентификатор : 10
Формат : UTF-8
Идентификатор кодека : S_TEXT/UTF8
Идентификатор кодека/Информация : UTF-8 Plain Text
Язык : Ukrainian
Default : Нет
Forced : Нет

Текст #4
Идентификатор : 11
Формат : UTF-8
Идентификатор кодека : S_TEXT/UTF8
Идентификатор кодека/Информация : UTF-8 Plain Text
Язык : English
Default : Нет
Forced : Нет

Меню
00:00:00.000 : en:Who's Harry Potter?
00:05:28.494 : en:Horace Slughorn
00:12:13.941 : en:What Could Be Safer?
00:14:57.146 : en:Snape's Visitors
00:18:43.205 : en:Draco's Detour
00:22:30.515 : en:That's For My Father
00:27:36.029 : en:Dark Forces
00:32:04.631 : en:The Half-Blooded Prince
00:37:48.224 : en:The Secret Riddle
00:44:48.352 : en:Hermione's Helping Hand
00:49:31.760 : en:Cursed Necklace
00:54:55.375 : en:Slug Club
01:00:00.305 : en:Felix Felicis
01:03:09.660 : en:How It Feels
01:05:57.161 : en:Free Agents
01:09:13.691 : en:The Unbreakable Vow
01:14:00.102 : en:Death Eaters Attack
01:21:09.781 : en:A Sluggish Memory
01:26:31.477 : en:Perilous Potions
01:33:37.403 : en:Sectumsempra
01:39:57.324 : en:Hiding the Book
01:43:16.273 : en:Liquid Luck
01:48:24.748 : en:After Aragog's Burial
01:52:30.118 : en:Horcruxes
01:56:53.673 : en:The Cave
02:02:11.741 : en:Inferi Attack
02:08:33.539 : en:The Astronomy Tower
02:15:00.300 : en:Flight of the Princess
02:19:08.048 : en:R.A.B.
02:23:54.125 : en:End Credits

скриншот   скриншот   скриншот   скриншот  


Гарри Поттер и Дары смерти: Часть 1 / Harry Potter and the Deathly Hallows: Part 1
Год выпуска: 2010

Страна: США, Великобритания

Жанр: Фэнтези, приключения

Продолжительность: 02:26:05

Перевод: Дублированный, авторский (одноголосый)

Субтитры: Русские, английские

Режиссер: Дэвид Йейтс

rating

В ролях: Дэниэл Рэдклифф, Эмма Уотсон, Том Фелтон, Руперт Гринт, Бонни Райт, Алан Рикман, Рэйф Файнс, Хелена Бонем Картер, Майкл Гэмбон, Брендан Глисон, Робби Колтрейн, Джеральдин Сомервилль, Девон Мюррэй, Ник Моран, Джейсон Айзекс, Гай Генри

Описание: Гарри, Рон и Гермиона отправляются в рискованное путешествие, ведь им предстоит выполнить важную миссию: найти и уничтожить тайные источники бессмертия и могущества Волан-де-Морта — Крестражи. Гарри Поттера ждёт самое страшное испытание в жизни - смертельная схватка с Волан-де-Мортом. Ждать помощи не от кого - Гарри одинок, как никогда… Друзья и враги Гарри предстают в совершенно неожиданном свете. Граница между Добром и Злом становится всё призрачнее…
Качество: BDRip 1080p
Формат: MKV
Видео: MPEG-4 AVC, 11,4 Мбит/сек, 1920х800
Аудио#1: Русский, AC-3, 6 ch, 640 Кбит/с - Dub (Blu-ray EUR)
Аудио#2: Русский, DTS, 6 ch, 1509 Кбит/сек - AVO (Сербин)
Аудио#3: Украинский, AC-3, 6 ch, 640 Кбит/с - Dub (Blu-ray EUR)
Аудио#4: Английский, DTS, 6 ch, 1509 Кбит/сек
Видео
Идентификатор : 1
Формат : AVC
Формат/Информация : Advanced Video Codec
Профиль формата : High@L4.1
Настройки формата : CABAC / 5 Ref Frames
Параметр CABAC формата : Да
Параметр RefFrames формата : 5 кадров
Идентификатор кодека : V_MPEG4/ISO/AVC
Продолжительность : 2 ч. 26 м.
Битрейт : 11,4 Мбит/сек
Ширина : 1920 пикселей
Высота : 800 пикселей
Соотношение сторон : 2,40:1
Режим частоты кадров : Постоянный
Частота кадров : 23,976 (24000/1001) кадра/сек
Цветовое пространство : YUV
Субдискретизация насыщенности : 4:2:0
Битовая глубина : 8 бит
Тип развёртки : Прогрессивная
Бит/(Пиксели*Кадры) : 0.311
Размер потока : 11,7 Гбайт (71%)
Заголовок : Release for HDCLUB
Библиотека кодирования : x264 core 142 r2409+42 04be48a tMod [8-bit@4:2:0 X86_64]
Настройки программы : cabac=1 / ref=5 / deblock=1:-2:-2 / analyse=0x3:0x113 / me=umh / subme=11 / psy=1 / fade_compensate=0.00 / psy_rd=1.00:0.00 / mixed_ref=1 / me_range=48 / chroma_me=1 / trellis=2 / 8x8dct=1 / cqm=0 / deadzone=21,11 / fast_pskip=1 / chroma_qp_offset=-2 / threads=12 / lookahead_threads=2 / sliced_threads=0 / nr=0 / decimate=1 / interlaced=0 / bluray_compat=0 / constrained_intra=0 / fgo=0 / bframes=8 / b_pyramid=2 / b_adapt=2 / b_bias=0 / direct=1 / weightb=1 / open_gop=0 / weightp=2 / keyint=250 / keyint_min=23 / scenecut=40 / intra_refresh=0 / rc_lookahead=120 / rc=crf / mbtree=1 / crf=17.0000 / qcomp=0.80 / qpmin=0:0:0 / qpmax=69:69:69 / qpstep=4 / vbv_maxrate=62500 / vbv_bufsize=78125 / crf_max=0.0 / nal_hrd=none / filler=0 / ip_ratio=1.40 / aq=4:0.70 / aq-sensitivity=11.00 / aq-factor=1.00:1.00:1.00 / aq2=1:0.60 / aq2-sensitivity=9.00 / aq2-factor=1.00:1.00:1.00 / aq3=1:[0.60:0.60]:[0.60:0.60]:[0.60:0.60]:[0.60:0.60] / aq3-sensitivity=10.00 / aq3-factor=[1.00:1.00]:[1.00:1.00]:[1.00:1.00] / aq3-boundary=192:64:24
Язык : English
Default : Да
Forced : Нет
Цветовой диапазон : Limited
Основные цвета : BT.709
Характеристики трансфера : BT.709
Коэффициенты матрицы : BT.709

Аудио #1
Идентификатор : 2
Формат : AC-3
Формат/Информация : Audio Coding 3
Коммерческое название : Dolby Digital
Идентификатор кодека : A_AC3
Продолжительность : 2 ч. 26 м.
Вид битрейта : Постоянный
Битрейт : 640 Кбит/сек
Каналы : 6 каналов
ChannelLayout : L R C LFE Ls Rs
Частота : 48,0 КГц
Частота кадров : 31,250 кадров/сек (1536 SPF)
Битовая глубина : 16 бит
Метод сжатия : С потерями
Размер потока : 669 Мбайт (4%)
Заголовок : Dub, Blu-ray CEE
Язык : Russian
ServiceKind/String : Complete Main
Default : Да
Forced : Нет

Аудио #2
Идентификатор : 3
Формат : DTS
Формат/Информация : Digital Theater Systems
Идентификатор кодека : A_DTS
Продолжительность : 2 ч. 26 м.
Вид битрейта : Постоянный
Битрейт : 1509 Кбит/сек
Каналы : 6 каналов
ChannelLayout : C L R Ls Rs LFE
Частота : 48,0 КГц
Частота кадров : 93,750 кадра/сек (512 SPF)
Битовая глубина : 24 бит
Метод сжатия : С потерями
Размер потока : 1,54 Гбайт (9%)
Заголовок : VO, Сербин
Язык : Russian
Default : Нет
Forced : Нет

Аудио #3
Идентификатор : 4
Формат : AC-3
Формат/Информация : Audio Coding 3
Коммерческое название : Dolby Digital
Идентификатор кодека : A_AC3
Продолжительность : 2 ч. 26 м.
Вид битрейта : Постоянный
Битрейт : 640 Кбит/сек
Каналы : 6 каналов
ChannelLayout : L R C LFE Ls Rs
Частота : 48,0 КГц
Частота кадров : 31,250 кадров/сек (1536 SPF)
Битовая глубина : 16 бит
Метод сжатия : С потерями
Размер потока : 669 Мбайт (4%)
Заголовок : Dub, Blu-ray CEE
Язык : Ukrainian
ServiceKind/String : Complete Main
Default : Нет
Forced : Нет

Аудио #4
Идентификатор : 5
Формат : DTS
Формат/Информация : Digital Theater Systems
Идентификатор кодека : A_DTS
Продолжительность : 2 ч. 26 м.
Вид битрейта : Постоянный
Битрейт : 1509 Кбит/сек
Каналы : 6 каналов
ChannelLayout : C L R Ls Rs LFE
Частота : 48,0 КГц
Частота кадров : 93,750 кадра/сек (512 SPF)
Битовая глубина : 24 бит
Метод сжатия : С потерями
Размер потока : 1,54 Гбайт (9%)
Язык : English
Default : Нет
Forced : Нет

Текст #1
Идентификатор : 6
Формат : UTF-8
Идентификатор кодека : S_TEXT/UTF8
Идентификатор кодека/Информация : UTF-8 Plain Text
Заголовок : captions
Язык : Russian
Default : Да
Forced : Нет

Текст #2
Идентификатор : 7
Формат : UTF-8
Идентификатор кодека : S_TEXT/UTF8
Идентификатор кодека/Информация : UTF-8 Plain Text
Язык : Russian
Default : Нет
Forced : Нет

Текст #3
Идентификатор : 8
Формат : UTF-8
Идентификатор кодека : S_TEXT/UTF8
Идентификатор кодека/Информация : UTF-8 Plain Text
Язык : English
Default : Нет
Forced : Нет

Меню
00:00:00.000 : en:Dark Times
00:04:18.508 : en:Dark Lord Ascending
00:09:46.627 : en:The Seven Potters
00:15:16.206 : en:Aerial Ambush
00:19:13.569 : en:Fallen Warrior
00:26:04.229 : en:Dumbledore's Will
00:31:37.770 : en:The Wedding
00:35:43.307 : en:A Place to Hide
00:41:37.536 : en:Kreacher's Tale
00:45:45.617 : en:Theft of a Thief
00:50:14.094 : en:Ministry Interior
00:55:02.715 : en:Secret Files
00:58:31.174 : en:Lifting the Locket
01:03:41.358 : en:Forest Fugitives
01:10:02.197 : en:Getting Too Close
01:14:30.924 : en:Broken Ranks
01:18:48.848 : en:Invitation to Dance
01:22:17.598 : en:Clues Revealed
01:24:55.089 : en:Godric's Hollow
01:28:03.194 : en:Bathilda's Secret
01:32:34.173 : en:The Silver Doe
01:37:40.228 : en:Sword of Gryffindor
01:42:37.567 : en:Lighting the Way Back
01:47:54.133 : en:The Three Brothers
01:53:48.112 : en:The Deathly Hallows
01:57:30.960 : en:Snatchers Strike
02:01:27.988 : en:Malfoy Manor
02:05:42.159 : en:Dobby Has No Master
02:09:42.732 : en:Sleeping Friend
02:13:16.029 : en:Grave Robber
02:14:47.120 : en:End Credits

скриншот   скриншот   скриншот   скриншот  


Гарри Поттер и Дары смерти: Часть II / Harry Potter and the Deathly Hallows: Part 2
Год выпуска: 2011

Страна: США, Великобритания

Жанр: Фэнтези, приключения

Продолжительность: 02:10:27

Перевод: Дублированный, авторский (одноголосый)

Субтитры: Русские, английские

Режиссер: Дэвид Йейтс

rating

В ролях: Дэниэл Рэдклифф, Руперт Гринт, Эмма Уотсон, Рэйф Файнс, Алан Рикман, Хелена Бонем Картер, Том Фелтон, Гэри Олдман, Майкл Гэмбон, Мэгги Смит, Мэттью Льюис, Эванна Линч, Уорвик Дэвис, Джейсон Айзекс, Бонни Райт, Дэвид Тьюлис, Грэхэм Дафф, Киаран Хайндс, Джули Уолтерс, Расти Гофф, Келли Макдональд, Джордж Харрис, Хелен МакКрори, Джон Хёрт, Бенджамин Нортовер, Хебе Бердсалл, Донал Глисон, Афшан Азад, Девон Мюррэй, Джесси Кейв, Изабелла Лафлэнд

Описание: В грандиозной последней главе битва между добрыми и злыми силами мира волшебников перерастает во всеобщую войну. Ставки ещё никогда не были так высоки, а поиск убежища — столь сложен. И быть может именно Гарри Поттеру придется пожертвовать всем в финальном сражении с Волан-де-Мортом. Способен ли наш герой спасти мир? И всё закончится здесь.
Качество: BDRip 1080p
Формат: MKV
Видео: MPEG-4 AVC, 11,4 Мбит/сек, 1920х800
Аудио#1: Русский, AC-3, 6 ch, 640 Кбит/с - Dub (Blu-ray EUR)
Аудио#2: Русский, DTS, 6 ch, 1509 Кбит/сек - AVO (Сербин)
Аудио#3: Украинский, AC-3, 6 ch, 640 Кбит/с - Dub (Blu-ray EUR)
Аудио#4: Английский, DTS, 6 ch, 1509 Кбит/сек
Видео
Идентификатор : 1
Формат : AVC
Формат/Информация : Advanced Video Codec
Профиль формата : High@L4.1
Настройки формата : CABAC / 5 Ref Frames
Параметр CABAC формата : Да
Параметр RefFrames формата : 5 кадров
Идентификатор кодека : V_MPEG4/ISO/AVC
Продолжительность : 2 ч. 10 м.
Битрейт : 11,4 Мбит/сек
Ширина : 1920 пикселей
Высота : 800 пикселей
Соотношение сторон : 2,40:1
Режим частоты кадров : Постоянный
Частота кадров : 23,976 (24000/1001) кадра/сек
Цветовое пространство : YUV
Субдискретизация насыщенности : 4:2:0
Битовая глубина : 8 бит
Тип развёртки : Прогрессивная
Бит/(Пиксели*Кадры) : 0.309
Размер потока : 10,4 Гбайт (71%)
Заголовок : Release for HDCLUB
Библиотека кодирования : x264 core 142 r2409+42 04be48a tMod [8-bit@4:2:0 X86_64]
Настройки программы : cabac=1 / ref=5 / deblock=1:-2:-2 / analyse=0x3:0x113 / me=umh / subme=11 / psy=1 / fade_compensate=0.00 / psy_rd=1.00:0.00 / mixed_ref=1 / me_range=48 / chroma_me=1 / trellis=2 / 8x8dct=1 / cqm=0 / deadzone=21,11 / fast_pskip=1 / chroma_qp_offset=-2 / threads=12 / lookahead_threads=2 / sliced_threads=0 / nr=0 / decimate=1 / interlaced=0 / bluray_compat=0 / constrained_intra=0 / fgo=0 / bframes=8 / b_pyramid=2 / b_adapt=2 / b_bias=0 / direct=1 / weightb=1 / open_gop=0 / weightp=2 / keyint=250 / keyint_min=23 / scenecut=40 / intra_refresh=0 / rc_lookahead=120 / rc=crf / mbtree=1 / crf=18.5000 / qcomp=0.80 / qpmin=0:0:0 / qpmax=69:69:69 / qpstep=4 / vbv_maxrate=62500 / vbv_bufsize=78125 / crf_max=0.0 / nal_hrd=none / filler=0 / ip_ratio=1.40 / aq=4:0.70 / aq-sensitivity=11.00 / aq-factor=1.00:1.00:1.00 / aq2=1:0.60 / aq2-sensitivity=9.00 / aq2-factor=1.00:1.00:1.00 / aq3=1:[0.60:0.60]:[0.60:0.60]:[0.60:0.60]:[0.60:0.60] / aq3-sensitivity=10.00 / aq3-factor=[1.00:1.00]:[1.00:1.00]:[1.00:1.00] / aq3-boundary=192:64:24
Язык : English
Default : Да
Forced : Нет
Цветовой диапазон : Limited
Основные цвета : BT.709
Характеристики трансфера : BT.709
Коэффициенты матрицы : BT.709

Аудио #1
Идентификатор : 2
Формат : AC-3
Формат/Информация : Audio Coding 3
Коммерческое название : Dolby Digital
Идентификатор кодека : A_AC3
Продолжительность : 2 ч. 10 м.
Вид битрейта : Постоянный
Битрейт : 640 Кбит/сек
Каналы : 6 каналов
ChannelLayout : L R C LFE Ls Rs
Частота : 48,0 КГц
Частота кадров : 31,250 кадров/сек (1536 SPF)
Битовая глубина : 16 бит
Метод сжатия : С потерями
Размер потока : 597 Мбайт (4%)
Заголовок : Dub, Blu-ray CEE
Язык : Russian
ServiceKind/String : Complete Main
Default : Да
Forced : Нет

Аудио #2
Идентификатор : 3
Формат : DTS
Формат/Информация : Digital Theater Systems
Идентификатор кодека : A_DTS
Продолжительность : 2 ч. 10 м.
Вид битрейта : Постоянный
Битрейт : 1509 Кбит/сек
Каналы : 6 каналов
ChannelLayout : C L R Ls Rs LFE
Частота : 48,0 КГц
Частота кадров : 93,750 кадра/сек (512 SPF)
Битовая глубина : 24 бит
Метод сжатия : С потерями
Размер потока : 1,37 Гбайт (9%)
Заголовок : VO, Сербин
Язык : Russian
Default : Нет
Forced : Нет

Аудио #3
Идентификатор : 4
Формат : AC-3
Формат/Информация : Audio Coding 3
Коммерческое название : Dolby Digital
Идентификатор кодека : A_AC3
Продолжительность : 2 ч. 10 м.
Вид битрейта : Постоянный
Битрейт : 640 Кбит/сек
Каналы : 6 каналов
ChannelLayout : L R C LFE Ls Rs
Частота : 48,0 КГц
Частота кадров : 31,250 кадров/сек (1536 SPF)
Битовая глубина : 16 бит
Метод сжатия : С потерями
Размер потока : 597 Мбайт (4%)
Заголовок : Dub, Blu-ray CEE
Язык : Ukrainian
ServiceKind/String : Complete Main
Default : Нет
Forced : Нет

Аудио #4
Идентификатор : 5
Формат : DTS
Формат/Информация : Digital Theater Systems
Идентификатор кодека : A_DTS
Продолжительность : 2 ч. 10 м.
Вид битрейта : Постоянный
Битрейт : 1509 Кбит/сек
Каналы : 6 каналов
ChannelLayout : C L R Ls Rs LFE
Частота : 48,0 КГц
Частота кадров : 93,750 кадра/сек (512 SPF)
Битовая глубина : 24 бит
Метод сжатия : С потерями
Размер потока : 1,37 Гбайт (9%)
Язык : English
Default : Нет
Forced : Нет

Текст #1
Идентификатор : 6
Формат : UTF-8
Идентификатор кодека : S_TEXT/UTF8
Идентификатор кодека/Информация : UTF-8 Plain Text
Заголовок : captions
Язык : Russian
Default : Да
Forced : Нет

Текст #2
Идентификатор : 7
Формат : UTF-8
Идентификатор кодека : S_TEXT/UTF8
Идентификатор кодека/Информация : UTF-8 Plain Text
Язык : Russian
Default : Нет
Forced : Нет

Текст #3
Идентификатор : 8
Формат : UTF-8
Идентификатор кодека : S_TEXT/UTF8
Идентификатор кодека/Информация : UTF-8 Plain Text
Язык : English
Default : Нет
Forced : Нет

Меню
00:00:00.000 : en:Shell Cottage
00:02:58.219 : en:Griphook's Price
00:06:21.172 : en:He's After You
00:10:21.871 : en:Gringotts
00:14:27.992 : en:Copping the Cup
00:20:05.621 : en:Exit the Dragon
00:22:47.783 : en:Final Hiding Place
00:25:38.620 : en:Aberforth Dumbledore
00:30:46.803 : en:Hogwarts Reunion
00:34:33.654 : en:Give Me Harry Potter
00:40:32.263 : en:Duty To Our School
00:45:52.249 : en:You Need Only Ask
00:50:15.470 : en:Blow For Blow
00:54:41.027 : en:Finding the Diadem
00:59:01.245 : en:Fiendfyre
01:03:42.067 : en:He Will Come To Me
01:07:06.063 : en:Your Mother's Eyes
01:11:24.488 : en:Confront Your Fate
01:14:38.932 : en:Visions of a Life
01:23:40.848 : en:I Open At the Close
01:29:17.727 : en:The Boy Who Lived
01:31:25.020 : en:King's Cross
01:36:37.666 : en:Declare Yourself
01:41:09.104 : en:Not Over
01:46:42.312 : en:The Wand's Choice
01:50:18.361 : en:The Wizard's Choice
01:54:16.682 : en:Nineteen Years Later
01:58:12.876 : en:End Credits

скриншот   скриншот   скриншот   скриншот  


piratbit.cf
!bober100 писал(а):

для ранее скачавших этот релиз:
1.удаляем старый файлик в своём торрентклиенте
2.скачиваем новый
3.ставим хешетировать(проверять) папку с ранее скачанными фильмами о Гарри.
приятного просмотра



Скачать Гарри Поттер. Полная коллекция через торрент http://pic1.kartinco.top/images/12/t9doh.jpg Скачать фильм Гарри Поттер. Полная коллекция через торрент бесплантно в хорошем качестве Описание: Ужасная трагедия, случившаяся 11 лет назад, навсегда изменила жизнь одного мальчика. С самого детства Гарри рос, испытывая ... 9 10 9
Info! Золотая раздача, скачанное не засчитывается.
Торрент: Зарегистрирован [2020-01-14 20:42] · скачан: 10 раз
Статус: √ проверено
Размер: 126.63 GB
Как cкачать? Как скачать Гарри Поттер. Полная коллекция через торрент | qTorrent

28-11-2019 20:33  

Отключить всю рекламу на сайте

15-01-2020 07:20 Гарри Поттер. Полная коллекция Скачать торрент  

перехешировал
стою раздаю
не тормозим - буду на раздаче 3 дня, потом уйду - места на компе совсем нет.piratbit.cf



15-01-2020 20:52 Гарри Поттер. Полная коллекция Скачать торрент  

Vich, большое спасибо за поддержкуpiratbit.cf



    Дорогой пользователь! Огромная просьба, поблагодарите релизера, оцените раздачу и оставьте свои комментарий, если Вы скачали Гарри Поттер. Полная коллекция через торрент бесплатно! Внесите свою лепту в развитие PiratBit!
    Комментировать посты могут только пользователи прошедшие не сложную регистрацию
    Показать сообщения:    

    Гарри Поттер. Полная коллекция через торрент
    Скачать бесплатно Гарри Поттер. Полная коллекция
    Гарри Поттер. Полная коллекция скачать торрент
    Гарри Поттер. Полная коллекция смотреть онлайн
    Cкачать фильм Гарри Поттер. Полная коллекция бесплатно
    Гарри Поттер. Полная коллекция скачать торрент в хорошем качестве
    Гарри Поттер. Полная коллекция смотреть онлайн бесплатно в хорошем качестве


    Вы не можете начинать темы
    Вы не можете отвечать на сообщения
    Вы не можете редактировать свои сообщения
    Вы не можете удалять свои сообщения
    Вы не можете голосовать в опросах
    Вы не можете прикреплять файлы к сообщениям
    Вы можете скачивать файлы