Ссылка на приватное зеркало всего за 1$. Внимание количество ограничено!!!

OK

1+1

iTunes

мы

OK

1

WEB-DLRip

Джокер

Пифагор

Ведьмак / The Witcher сериал

Лицензия

ПШазам

ОК

Оно 2

iTunes

30
pack

Вам бонус

ВАЖНО

!!Акция!!

Alien_RageХит недели

RePack

Resident Evil 21

ИГРА 18+

pack

RePack

jed

!!Акция!!

Alien_Rage

RePack

fifa19

RePack

Assassins Creed: Odyssey

RePack

NEED FOR SPEED™ PAYBACK

4 сезон

9 сезон

Бесстыжие 9 сезон

Все сериалы

все сериалы на PB.wtf

RePack

FAR CRY 5
  

Курьер / The Courier (Закари Адлер) [2019, боевик, триллер, драма, BDRip 720p] DUB (rus, ukr) [iTunes] piratbit.cf

Курьер через торрент piratbit.cf

Раздают: 4 [ 1 MB/s ] Качают: 1 [ 0 KB/s ]
Размер: 4.41 GB | Добавлен: 6 д. назад | Торрент скачан:66 раз
Скачать  

12-01-2020 19:59 Курьер Скачать торрент  

Курьер | The Courier
Год выпуска: 2019
Страна: Великобритания, США
Студия: Rollercoaster Angel Productions, Signature Films
Жанр: боевик, триллер, драма
Продолжительность: 01:39:39
Перевод: Дублированный | iTunes
Субтитры: Русские (Full), английские

Режиссер: Закари Адлер

rating

В ролях: Ольга Куриленко, Гари Олдман, Амит Шах, Алисия Агнесон, Грег Орвис, Крэйг Конуэй, Уильям Моусли, Дермот Малруни, Гордон Александр, Нил Чапелоу

Описание: На первый взгляд, она - всего лишь курьер на черном мотоцикле, стремительно пронзающем ночной Лондон. Но даже в огромном мегаполисе красотке удается ускользнуть от уличных камер, и ее имя невозможно найти ни в одной базе данных. Именно она, дерзкая и неуловимая, бросит вызов могущественному криминальному боссу. И ему лучше не знать, кто на самом деле эта взрывная брюнетка...

Качество: BDRip 720p
Формат: MKV

Видео: MPEG-4 AVC, 1280x534, 5129 Kbit/s, 23.976 fps
Аудио #01: 48 kHz, AC3, 5.1, 384 Kbps | Дублированный | RUS |
Аудио #02: 48 kHz, AC3, 2.0, 192 Kbps | Дублированный | UKR |
Аудио #03: 48 kHz, AC3, 5.1, 640 Kbps | Оригинал | ENG |
скриншот  скриншот  скриншот  скриншот  скриншот  

General
Unique ID : 235276105827584310741056864668891013443 (0xB100879D1ED02786B19BCC218FB8E143)
Complete name : E:Video111The.Courier.2019.BDRip.720p.seleZen.mkv
Format : Matroska
Format version : Version 4
File size : 4.41 GiB
Duration : 1 h 39 min
Overall bit rate : 6 340 kb/s
Movie name : The Courier 2019 from селезень
Encoded date : UTC 2020-01-12 19:52:17
Writing application : mkvmerge v40.0.0 ('Old Town Road + Pony') 64-bit
Writing library : libebml v1.3.9 + libmatroska v1.5.2

Video
ID : 1
Format : AVC
Format/Info : Advanced Video Codec
Format profile : High@L4.1
Format settings : CABAC / 12 Ref Frames
Format settings, CABAC : Yes
Format settings, Reference : 12 frames
Codec ID : V_MPEG4/ISO/AVC
Duration : 1 h 39 min
Bit rate : 5 129 kb/s
Width : 1 280 pixels
Height : 534 pixels
Display aspect ratio : 2.40:1
Frame rate mode : Constant
Frame rate : 23.976 (24000/1001) FPS
Color space : YUV
Chroma subsampling : 4:2:0
Bit depth : 8 bits
Scan type : Progressive
Bits/(Pixel*Frame) : 0.313
Stream size : 3.57 GiB (81%)
Title : Encoded by seleZen
Writing library : x264 core 142 r2431+42 c69a006 tMod [8-bit@all X86_64]
Encoding settings : cabac=1 / ref=12 / deblock=1:-2:-2 / analyse=0x3:0x133 / me=umh / subme=11 / psy=1 / fade_compensate=0.00 / psy_rd=0.00:0.01 / mixed_ref=1 / me_range=32 / chroma_me=1 / trellis=2 / 8x8dct=1 / cqm=0 / deadzone=21,11 / fast_pskip=0 / chroma_qp_offset=-1 / threads=24 / lookahead_threads=4 / sliced_threads=0 / nr=0 / decimate=0 / interlaced=0 / bluray_compat=0 / constrained_intra=0 / fgo=0 / bframes=10 / b_pyramid=2 / b_adapt=2 / b_bias=0 / direct=3 / weightb=1 / open_gop=0 / weightp=2 / keyint=240 / keyint_min=23 / scenecut=40 / intra_refresh=0 / rc_lookahead=50 / rc=2pass / mbtree=0 / bitrate=5129 / ratetol=1.0 / qcomp=0.60 / qpmin=0:0:0 / qpmax=51:51:51 / qpstep=4 / cplxblur=20.0 / qblur=0.5 / vbv_maxrate=50000 / vbv_bufsize=62500 / nal_hrd=none / filler=0 / ip_ratio=1.40 / pb_ratio=1.30 / aq=3:0.80 / aq-sensitivity=10.00 / aq-factor=1.00:1.00:1.00 / aq2=0 / aq3=0
Language : English
Default : Yes
Forced : No

Audio #1
ID : 2
Format : AC-3
Format/Info : Audio Coding 3
Commercial name : Dolby Digital
Codec ID : A_AC3
Duration : 1 h 39 min
Bit rate mode : Constant
Bit rate : 384 kb/s
Channel(s) : 6 channels
Channel layout : L R C LFE Ls Rs
Sampling rate : 48.0 kHz
Frame rate : 31.250 FPS (1536 SPF)
Compression mode : Lossy
Stream size : 273 MiB (6%)
Title : iTunes
Language : Russian
Service kind : Complete Main
Default : Yes
Forced : Yes

Audio #2
ID : 3
Format : AC-3
Format/Info : Audio Coding 3
Commercial name : Dolby Digital
Codec ID : A_AC3
Duration : 1 h 39 min
Bit rate mode : Constant
Bit rate : 192 kb/s
Channel(s) : 2 channels
Channel layout : L R
Sampling rate : 48.0 kHz
Frame rate : 31.250 FPS (1536 SPF)
Compression mode : Lossy
Stream size : 137 MiB (3%)
Title : Dub
Language : Ukrainian
Service kind : Complete Main
Default : No
Forced : No

Audio #3
ID : 4
Format : AC-3
Format/Info : Audio Coding 3
Commercial name : Dolby Digital
Codec ID : A_AC3
Duration : 1 h 39 min
Bit rate mode : Constant
Bit rate : 640 kb/s
Channel(s) : 6 channels
Channel layout : L R C LFE Ls Rs
Sampling rate : 48.0 kHz
Frame rate : 31.250 FPS (1536 SPF)
Compression mode : Lossy
Stream size : 456 MiB (10%)
Title : Original
Language : English
Service kind : Complete Main
Default : No
Forced : No

Text #1
ID : 5
Format : UTF-8
Codec ID : S_TEXT/UTF8
Codec ID/Info : UTF-8 Plain Text
Duration : 1 h 34 min
Bit rate : 44 b/s
Count of elements : 665
Stream size : 30.7 KiB (0%)
Title : Full
Language : Russian
Default : No
Forced : No

Text #2
ID : 6
Format : UTF-8
Codec ID : S_TEXT/UTF8
Codec ID/Info : UTF-8 Plain Text
Duration : 1 h 33 min
Bit rate : 26 b/s
Count of elements : 666
Stream size : 18.2 KiB (0%)
Title : Full
Language : English
Default : No
Forced : No

Text #3
ID : 7
Format : UTF-8
Codec ID : S_TEXT/UTF8
Codec ID/Info : UTF-8 Plain Text
Duration : 1 h 33 min
Bit rate : 32 b/s
Count of elements : 893
Stream size : 22.1 KiB (0%)
Title : SDH
Language : English
Default : No
Forced : No

Menu
00:00:00.000 : en:Chapter 01
00:08:21.126 : en:Chapter 02
00:13:59.797 : en:Chapter 03
00:18:42.163 : en:Chapter 04
00:25:09.258 : en:Chapter 05
00:31:29.054 : en:Chapter 06
00:34:47.711 : en:Chapter 07
00:41:41.332 : en:Chapter 08
00:45:43.741 : en:Chapter 09
00:52:26.727 : en:Chapter 10
00:57:45.671 : en:Chapter 11
01:05:11.491 : en:Chapter 12
01:11:38.920 : en:Chapter 13
01:17:23.639 : en:Chapter 14
01:25:30.834 : en:Chapter 15
01:33:35.568 : en:Chapter 16

piratbit.cf



Скачать Курьер через торрент https://img16.lostpic.net/2020/01/12/2e872de203e48cfc12ec09683a0564d2.jpg Скачать фильм Курьер через торрент бесплантно в хорошем качестве Описание: На первый взгляд, она - всего лишь курьер на черном мотоцикле, стремительно пронзающем ночной Лондон. Но даже в огромном ... 7.8 10 4
Торрент: Зарегистрирован [2020-01-12 19:59] · скачан: 66 раз
Статус: √ проверено
Размер: 4.41 GB
Как cкачать? Как скачать Курьер через торрент | qTorrent

% Раздел Тема Автор DL S | L
Фильмы 2019-2020 [DVDrip, WEB-DLRip, HDrip] (DUB, MVO) [ 2.05 GB ] Курьер / The Courier [2019 BDRip-AVC] DUB - ExKinoRay Enigma2010 Скачать
48 | 2
Фильмы 2019-2020 [DVDrip, WEB-DLRip, HDrip] (DUB, MVO) [ 1.46 GB ] Курьер / The Courier [2019 BDRip] bober100 Скачать
14 | 0
Фильмы 2019-2020 [DVDrip, WEB-DLRip, HDrip] (DUB, MVO) [ 1.41 GB ] Курьер / The Courier [2019 BDRip-AVC] bober100 Скачать
10 | 0
Фильмы [HD 720p, 1080p] (Хороший звук DUB, MVO) [ 7.8 GB ] Курьер / The Courier [2019 BDRip 1080p] DUB bober100 Скачать
12 | 0
Фильмы 2019-2020 [DVDrip, WEB-DLRip, HDrip] (DUB, MVO) [ 709 MB ] Курьер / The Courier [2019 WEB-DLRip ""] coc900 Скачать
9 | 0
Фильмы 2019-2020 [DVDrip, WEB-DLRip, HDrip] (DUB, MVO) [ 1.45 GB ] Курьер / The Courier [2019 WEB-DLRip-AVC] bober100 Скачать
14 | 0
Фильмы (WEB-DL 720p, 1080p) [ 3.02 GB ] Курьер / The Courier [2019 WEB-DL 720p] 2x killermax2013 Скачать
4 | 0

28-11-2019 20:33  

Отключить всю рекламу на сайте

    Дорогой пользователь! Огромная просьба, поблагодарите релизера, оцените раздачу и оставьте свои комментарий, если Вы скачали Курьер через торрент бесплатно! Внесите свою лепту в развитие PiratBit!
    Комментировать посты могут только пользователи прошедшие не сложную регистрацию
    Показать сообщения:    

    Курьер через торрент
    Скачать бесплатно Курьер
    Курьер скачать торрент
    Курьер смотреть онлайн
    Cкачать фильм Курьер бесплатно
    Курьер скачать торрент в хорошем качестве
    Курьер смотреть онлайн бесплатно в хорошем качестве


    Вы не можете начинать темы
    Вы не можете отвечать на сообщения
    Вы не можете редактировать свои сообщения
    Вы не можете удалять свои сообщения
    Вы не можете голосовать в опросах
    Вы не можете прикреплять файлы к сообщениям
    Вы можете скачивать файлы