Ссылка на приватное зеркало всего за 1$. Внимание количество ограничено!!!

OK

1+1

iTunes

мы

OK

1

WEB-DLRip

Джокер

Пифагор

Ведьмак / The Witcher сериал

iTunes

ПШазам

ОК

Оно 2

iTunes

30
pack

Вам бонус

ВАЖНО

!!Акция!!

Alien_RageХит недели

RePack

Resident Evil 21

ИГРА 18+

pack

RePack

jed

RePack

fifa19

RePack

Assassins Creed: Odyssey

RePack

NEED FOR SPEED™ PAYBACK

4 сезон

9 сезон

Бесстыжие 9 сезон

Все сериалы

все сериалы на PB.wtf

RePack

FAR CRY 5
  

Поцелуй перед смертью / A Kiss Before Dying (Джеймс Дирден) [1991, триллер, криминал, детектив, WEB-DL 1080p] MVO + 2хDVO + 2хAVO - KORSAR piratbit.cf

Поцелуй перед смертью через торрент piratbit.cf

Раздают: 1 [ 0 KB/s ]
Размер: 8.05 GB | Добавлен: 16 д. назад | Торрент скачан:7 раз
Скачать  

12-01-2020 22:08 Поцелуй перед смертью Скачать торрент  

Поцелуй перед смертью / A Kiss Before Dying
Год выпуска: 1991
Страна: США , Великобритания
Жанр: Триллер, криминал, детектив
Продолжительность: 01:32:59
Перевод: Профессиональный многоголосый, профессиональный двухголосый, авторский одноголосый
Субтитры: Английские
Режиссёр: Джеймс Дирден
В ролях: Мэтт Диллон, Шон Янг, Макс фон Сюдов, Джим Файф, Лачиль Карл, Марта Геман, Лия Чанг, Ивет Эдельхарт, Джеймс Бонфанти, Сара Келлер
Описание: Джонатан Корлисс - это молодой человек владеющий мощным арсеналом качеств для достижения любой цели. Он — привлекателен, терпелив, хитер и хладнокровен. И самое главное — у него есть блестящий план, который вынашивался долгие годы. План, который откроет Джону двери к огромному богатству. План, который ни при каких обстоятельствах не может дать «осечку». И поверьте, Джонатан не остановится ни перед чем! Даже, если ему придется Вас убить.

rating

Качество: WEB-DL 1080p
Формат: MKV
Видео: MPEG-4 AVC, 1920x1080, 10600 Кбит/сек, 23.976 Кадр/сек
Аудио 1: Russian: AC3, 2 ch, 192 Кбит/сек - MVO, Россия
Аудио 2: Russian: AC3, 2 ch, 192 Кбит/сек - DVO, SDI Media
Аудио 3: Russian: AC3, 2 ch, 192 Кбит/сек - DVO
Аудио 4: Russian: AC3, 2 ch, 192 Кбит/сек - AVO, А. Гаврилов
Аудио 5: Russian: AC3, 2 ch, 192 Кбит/сек - AVO, А. Пронин
Аудио 6: English: AC3, 6 ch, 384 Кбит/сек - Оригинал, DVD
Аудио 7: English: EAC3, 2 ch, 224 Кбит/сек - Оригинал, Amazon

Релиз от:


• Исходник видео WEB-DL Amazon.
• В кадре временами присутствует логотип телеканала "STARZ".
Общее
Уникальный идентификатор : 240108751052272332556712547768564005489 (0xB4A3436B4E290E6CAB0EE77BCB713A71)
Полное имя : Поцелуй.перед.смертью.1991.WEB-DL.1080p.mkv
Формат : Matroska
Версия формата : Version 2
Размер файла : 8,05 Гбайт
Продолжительность : 1 ч. 32 м.
Режим общего битрейта : Переменный
Общий поток : 12,4 Мбит/сек
Дата кодирования : UTC 2018-04-22 20:55:59
Программа кодирования : mkvmerge v5.8.0 ('No Sleep / Pillow') built on Sep 2 2012 15:37:04
Библиотека кодирования : libebml v1.2.3 + libmatroska v1.3.0

Видео
Идентификатор : 1
Формат : AVC
Формат/Информация : Advanced Video Codec
Профиль формата : High@L4
Настройки формата : CABAC / 4 Ref Frames
Параметр CABAC формата : Да
Параметр RefFrames формата : 4 кадра
Идентификатор кодека : V_MPEG4/ISO/AVC
Продолжительность : 1 ч. 32 м.
Вид битрейта : Переменный
Битрейт : 10,6 Мбит/сек
Максимальный битрейт : 15,0 Мбит/сек
Ширина : 1920 пикселей
Высота : 1080 пикселей
Соотношение сторон : 16:9
Режим частоты кадров : Постоянный
Частота кадров : 23,976 (24000/1001) кадра/сек
Цветовое пространство : YUV
Субдискретизация насыщенности : 4:2:0
Битовая глубина : 8 бит
Тип развёртки : Прогрессивная
Бит/(Пиксели*Кадры) : 0.213
Размер потока : 6,87 Гбайт (85%)
Язык : English
Default : Да
Forced : Нет
Цветовой диапазон : Limited
Основные цвета : BT.709
Характеристики трансфера : BT.709
Коэффициенты матрицы : BT.709

Аудио #1
Идентификатор : 2
Формат : AC-3
Формат/Информация : Audio Coding 3
Идентификатор кодека : A_AC3
Продолжительность : 1 ч. 32 м.
Вид битрейта : Постоянный
Битрейт : 192 Кбит/сек
Каналы : 2 канала
Расположение каналов : Front: L R
Частота : 48,0 КГц
Частота кадров : 31,250 кадров/сек (1536 SPF)
Битовая глубина : 16 бит
Метод сжатия : С потерями
Размер потока : 128 Мбайт (2%)
Заголовок : MVO | Россия
Язык : Russian
По умолчанию : Да
Принудительно : Нет

Аудио #2
Идентификатор : 3
Формат : AC-3
Формат/Информация : Audio Coding 3
Идентификатор кодека : A_AC3
Продолжительность : 1 ч. 32 м.
Вид битрейта : Постоянный
Битрейт : 192 Кбит/сек
Каналы : 2 канала
Расположение каналов : Front: L R
Частота : 48,0 КГц
Частота кадров : 31,250 кадров/сек (1536 SPF)
Битовая глубина : 16 бит
Метод сжатия : С потерями
Размер потока : 128 Мбайт (2%)
Заголовок : DVO | SDI Media
Язык : Russian
По умолчанию : Нет
Принудительно : Нет

Аудио #3
Идентификатор : 4
Формат : AC-3
Формат/Информация : Audio Coding 3
Идентификатор кодека : A_AC3
Продолжительность : 1 ч. 32 м.
Вид битрейта : Постоянный
Битрейт : 192 Кбит/сек
Каналы : 2 канала
Расположение каналов : Front: L R
Частота : 48,0 КГц
Частота кадров : 31,250 кадров/сек (1536 SPF)
Битовая глубина : 16 бит
Метод сжатия : С потерями
Размер потока : 128 Мбайт (2%)
Заголовок : DVO
Язык : Russian
По умолчанию : Нет
Принудительно : Нет

Аудио #4
Идентификатор : 5
Формат : AC-3
Формат/Информация : Audio Coding 3
Идентификатор кодека : A_AC3
Продолжительность : 1 ч. 32 м.
Вид битрейта : Постоянный
Битрейт : 192 Кбит/сек
Каналы : 2 канала
Расположение каналов : Front: L R
Частота : 48,0 КГц
Частота кадров : 31,250 кадров/сек (1536 SPF)
Битовая глубина : 16 бит
Метод сжатия : С потерями
Размер потока : 128 Мбайт (2%)
Заголовок : AVO | А. Гаврилов
Язык : Russian
По умолчанию : Нет
Принудительно : Нет

Аудио #5
Идентификатор : 6
Формат : AC-3
Формат/Информация : Audio Coding 3
Идентификатор кодека : A_AC3
Продолжительность : 1 ч. 32 м.
Вид битрейта : Постоянный
Битрейт : 192 Кбит/сек
Каналы : 2 канала
Расположение каналов : Front: L R
Частота : 48,0 КГц
Частота кадров : 31,250 кадров/сек (1536 SPF)
Битовая глубина : 16 бит
Метод сжатия : С потерями
Размер потока : 128 Мбайт (2%)
Заголовок : AVO | А. Пронин
Язык : Russian
По умолчанию : Нет
Принудительно : Нет

Аудио #6
Идентификатор : 7
Формат : AC-3
Формат/Информация : Audio Coding 3
Идентификатор кодека : A_AC3
Продолжительность : 1 ч. 32 м.
Вид битрейта : Постоянный
Битрейт : 384 Кбит/сек
Каналы : 6 каналов
Расположение каналов : Front: L C R, Side: L R, LFE
Частота : 48,0 КГц
Частота кадров : 31,250 кадров/сек (1536 SPF)
Битовая глубина : 16 бит
Метод сжатия : С потерями
Размер потока : 255 Мбайт (3%)
Заголовок : Original | 5.1
Язык : English
По умолчанию : Нет
Принудительно : Нет

Аудио #7
Идентификатор : 8
Формат : E-AC-3
Формат/Информация : Enhanced Audio Coding 3
Идентификатор кодека : A_EAC3
Продолжительность : 1 ч. 32 м.
Вид битрейта : Постоянный
Битрейт : 224 Кбит/сек
Каналы : 2 канала
Расположение каналов : Front: L R
Частота : 48,0 КГц
Частота кадров : 187,500 кадров/сек (256 SPF)
Метод сжатия : С потерями
Задержка видео : 25 мс.
Размер потока : 149 Мбайт (2%)
Заголовок : Original | 2.0
Язык : English
По умолчанию : Нет
Принудительно : Нет

Текст
Идентификатор : 9
Формат : UTF-8
Идентификатор кодека : S_TEXT/UTF8
Идентификатор кодека/Информация : UTF-8 Plain Text
Язык : English
По умолчанию : Нет
Принудительно : Нет

Меню
00:00:00.000 : en:Chapter 01
00:10:25.568 : en:Chapter 02
00:18:37.726 : en:Chapter 03
00:29:59.741 : en:Chapter 04
00:39:50.698 : en:Chapter 05
00:51:04.204 : en:Chapter 06
01:00:43.917 : en:Chapter 07
01:10:19.158 : en:Chapter 08
01:20:59.131 : en:Chapter 09
01:28:43.762 : en:Chapter 10
01:32:55.763 : en:Chapter 11
piratbit.cf



Скачать Поцелуй перед смертью через торрент https://i1.imageban.ru/out/2020/01/13/0005d7dd13da9ad421eb210a63f6ab30.png Скачать фильм Поцелуй перед смертью через торрент бесплантно в хорошем качестве Описание: Джонатан Корлисс - это молодой человек владеющий мощным арсеналом качеств для достижения любой цели. Он — привлекателен, ... 5 10 1
Info! Золотая раздача, скачанное не засчитывается.
Торрент: Зарегистрирован [2020-01-12 22:08] · скачан: 7 раз
Статус: √ проверено
Размер: 8.05 GB
Как cкачать? Как скачать Поцелуй перед смертью через торрент | qTorrent

28-11-2019 20:33  

Отключить всю рекламу на сайте

    Дорогой пользователь! Огромная просьба, поблагодарите релизера, оцените раздачу и оставьте свои комментарий, если Вы скачали Поцелуй перед смертью через торрент бесплатно! Внесите свою лепту в развитие PiratBit!
    Комментировать посты могут только пользователи прошедшие не сложную регистрацию
    Показать сообщения:    

    Поцелуй перед смертью через торрент
    Скачать бесплатно Поцелуй перед смертью
    Поцелуй перед смертью скачать торрент
    Поцелуй перед смертью смотреть онлайн
    Cкачать фильм Поцелуй перед смертью бесплатно
    Поцелуй перед смертью скачать торрент в хорошем качестве
    Поцелуй перед смертью смотреть онлайн бесплатно в хорошем качестве


    Вы не можете начинать темы
    Вы не можете отвечать на сообщения
    Вы не можете редактировать свои сообщения
    Вы не можете удалять свои сообщения
    Вы не можете голосовать в опросах
    Вы не можете прикреплять файлы к сообщениям
    Вы можете скачивать файлы