Ссылка на приватное зеркало всего за 1$. Внимание количество ограничено!!!

OK

1+1

iTunes

мы

OK

1

WEB-DLRip

Джокер

Пифагор

Ведьмак / The Witcher сериал

Лицензия

ПШазам

ОК

Оно 2

iTunes

30
pack

Вам бонус

ВАЖНО

!!Акция!!

Alien_RageХит недели

RePack

Resident Evil 21

ИГРА 18+

pack

RePack

jed

RePack

fifa19

RePack

Assassins Creed: Odyssey

RePack

NEED FOR SPEED™ PAYBACK

4 сезон

9 сезон

Бесстыжие 9 сезон

Все сериалы

все сериалы на PB.wtf

RePack

FAR CRY 5
  

Черное и синее / Black and Blue (Деон Тейлор) [2019 г., боевик, триллер, драма, криминал, HDRip, Профессиональный многоголосый закадровый "iTunes"] piratbit.cf

Черное и синее через торрент piratbit.cf

Раздают: 3 [ 1 MB/s ]
Размер: 2.17 GB | Добавлен: 8 д. назад | Торрент скачан:58 раз
Скачать  

13-01-2020 18:30 Черное и синее Скачать торрент  

Черное и синее / Black and Blue
Год выпуска: 2019
Страна: США / Hidden Empire Film Group, Royal Viking Entertainment, Screen Gems
Жанр: боевик, триллер, драма, криминал
Продолжительность: 01:47:57
Перевод: Профессиональный многоголосый закадровый (iTunes)

Режиссер: Деон Тейлор

rating

В ролях: Наоми Харрис, Тайриз Гибсон, Фрэнк Грилло, Майк Колтер, Бо Напп, Рейд Скотт, Нафиса Уильямс, Карсин Тейлор, Кевин Джонсон, Фрэнки Смит

Описание: Сюжет повествует о молодой сотруднице полиции Детройта, которая оказывается очевидицей того, как коррумпированные офицеры убивают наркодилера, а произошедшее остается записанным на ее камеру. Копы охотятся за ней, чтобы уничтожить запись, но вскоре все становится еще хуже. Они убеждают криминальную банду, что именно девушка виновна в смерти дилера.

Качество: HDRip
Формат: AVI
Видео кодек: DivX
Аудио кодек: AC3
Видео: 720x304 (2.37:1), 23.976 fps, DivX Codec 4.x ~2480 kbps avg, 0.47 bit/pixel
Аудио: 48 kHz, AC3 Dolby Digital, 3/2 (L,C,R,l,r) + LFE ch, ~384 kbps
скриншот   скриншот   скриншот   скриншот  

Общее
Полное имя : F:\ФИЛЬМЫ\Черное и синее.2019.HDRip.avi
Формат : AVI
Формат/Информация : Audio Video Interleave
Профиль формата : OpenDML
Размер файла : 2,17 Гбайт
Продолжительность : 1 ч. 47 м.
Общий поток : 2872 Кбит/сек
Программа кодирования : VirtualDubMod 1.5.10.3 | www.virtualdub-fr.org || (build 2550/release)
Библиотека кодирования : VirtualDubMod build 2550/release

Видео
Идентификатор : 0
Формат : MPEG-4 Visual
Профиль формата : Advanced Simple@L5
Настройки формата : BVOP3 / GMC3 / QPel
Параметр BVOP формата : 3
Параметр QPel формата : Да
Параметр GMC формата : 3 точки перехода
Параметр матрицы формата : Default (MPEG)
Идентификатор кодека : DIVX
Идентификатор кодека/Информация : Project Mayo
Идентификатор кодека/Подсказка : DivX 4
Продолжительность : 1 ч. 47 м.
Битрейт : 2476 Кбит/сек
Ширина : 720 пикселей
Высота : 304 пикселя
Соотношение сторон : 2,35:1
Частота кадров : 23,976 (24000/1001) кадра/сек
Цветовое пространство : YUV
Субдискретизация насыщенности : 4:2:0
Битовая глубина : 8 бит
Тип развёртки : Прогрессивная
Метод сжатия : С потерями
Бит/(Пиксели*Кадры) : 0.472
Размер потока : 1,87 Гбайт (86%)
Библиотека кодирования : XviD 1.2.1 (UTC 2008-12-04)

Аудио
Идентификатор : 1
Формат : AC-3
Формат/Информация : Audio Coding 3
Коммерческое название : Dolby Digital
Идентификатор кодека : 2000
Продолжительность : 1 ч. 47 м.
Вид битрейта : Постоянный
Битрейт : 384 Кбит/сек
Каналы : 6 каналов
ChannelLayout : L R C LFE Ls Rs
Частота : 48,0 КГц
Частота кадров : 31,250 кадров/сек (1536 SPF)
Метод сжатия : С потерями
Размер потока : 296 Мбайт (13%)
Выравнивание : Разделение по промежуткам
Продолжительность промежутка : 42 мс. (1,00 видеокадр)
Время предзагрузки промежутка : 500 мс.
ServiceKind/String : Complete Main

piratbit.cf



Скачать Черное и синее через торрент http://pic1.kartinco.top/images/12/w5rnc.jpg Скачать фильм Черное и синее через торрент бесплантно в хорошем качестве Описание: Сюжет повествует о молодой сотруднице полиции Детройта, которая оказывается очевидицей того, как коррумпированные офицеры убивают ... 7.7 10 3
Торрент: Зарегистрирован [2020-01-13 18:30] · скачан: 58 раз
Статус: √ проверено
Размер: 2.17 GB
Как cкачать? Как скачать Черное и синее через торрент | qTorrent

% Раздел Тема Автор DL S | L
Фильмы [HD 720p, 1080p] (Хороший звук DUB, MVO) [ 8.76 GB ] Чёрный и синий / Black and Blue [2019 BDRip-HEVC 1080p ] MVO bober100 Скачать
13 | 1
Фильмы 2019-2020 [DVDrip, WEB-DLRip, HDrip] (DUB, MVO) [ 1.41 GB ] Чёрный и синий / Black and Blue [2019 BDRip] MVO Twi7ter Скачать
123 | 16
Фильмы [HD 720p, 1080p] (Хороший звук DUB, MVO) [ 10.3 GB ] Чёрный и синий / Black and Blue [2019 BDRip 1080p] MVO bober100 Скачать
14 | 0
Фильмы 2019-2020 [DVDrip, WEB-DLRip, HDrip] (DUB, MVO) [ 746 MB ] Чёрный и синий / Black and Blue [2019 HDRip] MVO bober100 Скачать
10 | 0
Фильмы 2019-2020 [DVDrip, WEB-DLRip, HDrip] (DUB, MVO) [ 1.41 GB ] Чёрный и синий / Black and Blue [2019 BDRip] MVO bober100 Скачать
12 | 0
Фильмы [HD 720p, 1080p] (Хороший звук DUB, MVO) [ 4.95 GB ] Чёрный и синий / Black and Blue [2019 BDRip 720p] MVO bober100 Скачать
10 | 0
Фильмы (WEB-DL 720p, 1080p) [ 4.34 GB ] Чёрный и синий / Black and Blue [2019 WEB-DL 720p] MVO bober100 Скачать
9 | 0

28-11-2019 20:33  

Отключить всю рекламу на сайте

    Дорогой пользователь! Огромная просьба, поблагодарите релизера, оцените раздачу и оставьте свои комментарий, если Вы скачали Черное и синее через торрент бесплатно! Внесите свою лепту в развитие PiratBit!
    Комментировать посты могут только пользователи прошедшие не сложную регистрацию
    Показать сообщения:    

    Черное и синее через торрент
    Скачать бесплатно Черное и синее
    Черное и синее скачать торрент
    Черное и синее смотреть онлайн
    Cкачать фильм Черное и синее бесплатно
    Черное и синее скачать торрент в хорошем качестве
    Черное и синее смотреть онлайн бесплатно в хорошем качестве


    Вы не можете начинать темы
    Вы не можете отвечать на сообщения
    Вы не можете редактировать свои сообщения
    Вы не можете удалять свои сообщения
    Вы не можете голосовать в опросах
    Вы не можете прикреплять файлы к сообщениям
    Вы можете скачивать файлы