Ссылка на приватное зеркало всего за 1$. Внимание количество ограничено!!!

iTunes

1+1

iTunes

мы

MV0

1

WEB-DLRip

Джокер

Пифагор

Ведьмак / The Witcher сериал

iTunes

ПШазам

iTunes

Оно 2

iTunes

30
pack

Вам бонус

ВАЖНО

!!Акция!!

Alien_RageХит недели

RePack

Resident Evil 21

ИГРА 18+

pack

RePack

jed

!!Акция!!

Alien_Rage

RePack

fifa19

RePack

Assassins Creed: Odyssey

RePack

NEED FOR SPEED™ PAYBACK

4 сезон

9 сезон

Бесстыжие 9 сезон

Все сериалы

все сериалы на PB.wtf

RePack

FAR CRY 5
  

Легенды завтрашнего дня / DC's Legends of Tomorrow / Сезон: 5 / Серии: 1-4 из 12 (Дэвид Геддес, Дермотт Даунс, Грегори Смит) [2020, Фантастика, приключения, боевик, WEBRip 1080p] MVO [TVShows] piratbit.cf

Легенды завтрашнего дня через торрент piratbit.cf

Раздают: 1 [ 0 KB/s ]
Размер: 11.77 GB | Добавлен: 2 д. 11 ч. назад | Торрент скачан:3 раза
Скачать  

22-01-2020 19:01 Легенды завтрашнего дня Скачать торрент  

Легенды завтрашнего дня | DC's Legends of Tomorrow
Год выпуска: 2020
Страна: США
Жанр: Фантастика, приключения, боевик
Продолжительность: ~ 00:43:00
Перевод: Профессиональный (многоголосый) | TVShows
Субтитры: отсутствуют

Режиссер: Дэвид Геддес, Дермотт Даунс, Грегори Смит

rating

В ролях: Артур Дарвилл, Мэйси Ричардсон-Селлерс, Ник Зано, Франц Драмех, Доминик Пёрселл, Эми Пембертон, Кейти Лотц, Брэндон Рут, Виктор Гарбер

Описание: Увидев будущее, которого обязательно нужно избежать, Рип Хантер, путешественник во времени, собирает команду из героев и злодеев, чтобы противостоять смертельной угрозе. На кону стоит не только наша планета, но и все время в целом. Сможет ли эта команда победить бессмертное зло, абсолютно непохожее на то, что они видели раньше?

Качество: WEBRip 1080p
Формат: MKV

Видео: MPEG-4 AVC, 1920x1080, 23.976 fps, ~9463 kbps
Аудио#1: Русский, AC3, 48 kHz, 6 ch, 384 kbps
Аудио#2: Английский, E-AC3, 48 kHz, 6 ch, 640 kbps
скриншот  скриншот  скриншот  скриншот  

General
Unique ID : 194100611362624394554366014839816179158 (0x92066AFFBC4CCF76CE97F556DE6BCDD6)
Complete name : DCs.Legends.Of.Tomorrow.S05E01.1080p.TVShows.mkv
Format : Matroska
Format version : Version 4
File size : 2.95 GiB
Duration : 42 min 19 s
Overall bit rate : 9 962 kb/s
Encoded date : UTC 2020-01-21 07:45:52
Writing application : mkvmerge v33.1.0 ('Primrose') 64-bit
Writing library : libebml v1.3.7 + libmatroska v1.5.0

Video
ID : 1
Format : AVC
Format/Info : Advanced Video Codec
Format profile : High@L4
Format settings : CABAC / 4 Ref Frames
Format settings, CABAC : Yes
Format settings, Reference frames : 4 frames
Codec ID : V_MPEG4/ISO/AVC
Duration : 42 min 19 s
Bit rate mode : Constant
Bit rate : 8 935 kb/s
Nominal bit rate : 10 000 kb/s
Width : 1 920 pixels
Height : 1 080 pixels
Display aspect ratio : 16:9
Frame rate mode : Constant
Frame rate : 23.976 (24000/1001) FPS
Color space : YUV
Chroma subsampling : 4:2:0
Bit depth : 8 bits
Scan type : Progressive
Bits/(Pixel*Frame) : 0.180
Stream size : 2.64 GiB (90%)
Default : Yes
Forced : No
Color range : Limited
Color primaries : BT.709
Transfer characteristics : BT.709
Matrix coefficients : BT.709

Audio #1
ID : 2
Format : AC-3
Format/Info : Audio Coding 3
Commercial name : Dolby Digital
Codec ID : A_AC3
Duration : 42 min 19 s
Bit rate mode : Constant
Bit rate : 384 kb/s
Channel(s) : 6 channels
Channel layout : L R C LFE Ls Rs
Sampling rate : 48.0 kHz
Frame rate : 31.250 FPS (1536 SPF)
Compression mode : Lossy
Stream size : 116 MiB (4%)
Title : TVShows
Language : Russian
Service kind : Complete Main
Default : Yes
Forced : Yes

Audio #2
ID : 3
Format : E-AC-3
Format/Info : Enhanced AC-3
Commercial name : Dolby Digital Plus
Codec ID : A_EAC3
Duration : 42 min 19 s
Bit rate mode : Constant
Bit rate : 640 kb/s
Channel(s) : 6 channels
Channel layout : L R C LFE Ls Rs
Sampling rate : 48.0 kHz
Frame rate : 31.250 FPS (1536 SPF)
Compression mode : Lossy
Stream size : 194 MiB (6%)
Title : Original
Language : English
Service kind : Complete Main
Default : No
Forced : No

Text
ID : 4
Format : UTF-8
Codec ID : S_TEXT/UTF8
Codec ID/Info : UTF-8 Plain Text
Duration : 42 min 11 s
Bit rate : 68 b/s
Count of elements : 725
Stream size : 21.3 KiB (0%)
Title : English
Language : English
Default : No
Forced : No

Внимание! Раздача ведётся путём добавления новых серий; при каждом добавлении создаётся новый торрент. Чтобы начать докачку новой серии, пользователям необходимо сделать следующее:
(1) остановить скачивание,
(2) удалить старый торрент у себя из клиента (старые серии удалять не надо),
(3) скачать новый торрент и запустить его у себя в клиенте вместо старого, при этом указать клиенту путь в старую папку куда и должно происходить скачивание новых серий.

Ваш клиент при этом должен произвести хеширование (проверку) старой папки (если не производит сам - помогите ему сделать это), и будет докачивать только те серии которых у вас ещё нет. Старые серии при этом не удаляются, а продолжают раздаваться!

Eсли вы уже удалили старые серии, то предотвратить повторную закачку старых серий можно, отжав галочку в соответсвующих местах при запуске нового торрента. По возможности, желательно не удалять старые серии как можно дольше чтобы релизёр не столько продолжал раздавать старые серии, а смог сконцентрироваться на новых.
piratbit.cf



Скачать Легенды завтрашнего дня через торрент https://d.radikal.ru/d12/2001/23/2a3dc9acc0f9.jpg Скачать фильм Легенды завтрашнего дня через торрент бесплантно в хорошем качестве Описание: Увидев будущее, которого обязательно нужно избежать, Рип Хантер, путешественник во времени, собирает команду из героев и злодеев, ... 10 10 4
Торрент: Зарегистрирован [2020-02-15 10:19] · скачан: 3 раз
Статус: √ проверено
Размер: 11.77 GB
Как cкачать? Как скачать Легенды завтрашнего дня через торрент | qTorrent

28-11-2019 20:33  

Отключить всю рекламу на сайте

    Дорогой пользователь! Огромная просьба, поблагодарите релизера, оцените раздачу и оставьте свои комментарий, если Вы скачали Легенды завтрашнего дня через торрент бесплатно! Внесите свою лепту в развитие PiratBit!
    Комментировать посты могут только пользователи прошедшие не сложную регистрацию
    Показать сообщения:    

    Легенды завтрашнего дня через торрент
    Скачать бесплатно Легенды завтрашнего дня
    Легенды завтрашнего дня скачать торрент
    Легенды завтрашнего дня смотреть онлайн
    Cкачать фильм Легенды завтрашнего дня бесплатно
    Легенды завтрашнего дня скачать торрент в хорошем качестве
    Легенды завтрашнего дня смотреть онлайн бесплатно в хорошем качестве


    Вы не можете начинать темы
    Вы не можете отвечать на сообщения
    Вы не можете редактировать свои сообщения
    Вы не можете удалять свои сообщения
    Вы не можете голосовать в опросах
    Вы не можете прикреплять файлы к сообщениям
    Вы можете скачивать файлы