Ссылка на приватное зеркало всего за 1$. Внимание количество ограничено!!!

iTunes

1+1

iTunes

мы

MV0

1

WEB-DLRip

Джокер

Пифагор

Ведьмак / The Witcher сериал

iTunes

ПШазам

iTunes

Оно 2

iTunes

30
pack

Вам бонус

ВАЖНО

!!Акция!!

Alien_RageХит недели

RePack

Resident Evil 21

ИГРА 18+

pack

RePack

jed

!!Акция!!

Alien_Rage

RePack

fifa19

RePack

Assassins Creed: Odyssey

RePack

NEED FOR SPEED™ PAYBACK

4 сезон

9 сезон

Бесстыжие 9 сезон

Все сериалы

все сериалы на PB.wtf

RePack

FAR CRY 5
  

С Богами. Последние 49 дней / Singwa Hamgge: Ingwa Yeon (Ён Хва Ким) [2018, фэнтези, приключения, драма, детектив, BDRip 720p by msltel] MVO, 2 x DVO piratbit.cf

С Богами. Последние 49 дней через торрент piratbit.cf

Раздают: 4 [ 203 KB/s ]
Размер: 5.08 GB | Добавлен: 2 д. 15 ч. назад | Торрент скачан:16 раз
Скачать  

15-02-2020 06:03 С Богами. Последние 49 дней Скачать торрент  

Название: С Богами. Последние 49 дней
Оригинальное название: Singwa Hamgge: Ingwa Yeon
Год выпуска: 2018
Страна: Южная Корея
Жанр: фэнтези, приключения, драма, детектив
Продолжительность: 02:21:21
Перевод: любительский многоголосый, любительский двухголосый
Режиссер: Ён Хва Ким
В ролях: Чон У Ха, Джи Хун Чжу, Хян Ги Ким, Дон Сок Ма, Дон Ук Ким, Чжон Чжэ Ли, Вон Хи Им, Хан Чхоль Чо, Иль У Нам, Чжи Хун Чон (I), Кён Су До, Гван Чан, Су Чон Е, Хэ Кён Чон, Кён Ён Ли, Мин Чон Ким, Дон Иль Сон, Чжун Хёк Ли (II)

О фильме: Три ангела смерти, которые сопровождают в другом мире душу смертного, обязанного пройти семь судов на небе, чтобы заслужить прощение и получить право на новую жизнь, получают в свое распоряжение 49-ю по счёту душу грешника. В процессе прохождения всех семи кругов очищения, ангелы встречаются с Домовым, который приоткрывает им тайну их прошлых воплощений. Желая узнать тайну своих прошлых жизней, Ангелы отправляются в путешествие по мирам на 1000 лет назад...



Качество: BDRip 720p
Формат: MKV
Видео: MPEG-4 AVC, 4117 Kбит/с, 1280x536, 24.000 кадр/с
Аудио 1: русский, AC3, 192 kbps, 2 ch, 48 kHz [закадровый многоголосый, STEPonee]
Аудио 2: русский, AC3, 192 kbps, 2 ch, 48 kHz [закадровый двухголосый, Ворон и Wenlana]
Аудио 3: русский, AC3, 192 kbps, 2 ch, 48 kHz [закадровый двухголосый, SOFTBOX]
Аудио 4: корейский, AC3, 448 kbps, 6 ch, 48 kHz [оригинал]
Субтитры 1: русские (форсированные)
Субтитры 2: русские (cardinals)
Субтитры 3: русские (Zipper)
Субтитры 4: английские
Главы/чаптеры
Общее
Уникальный идентификатор : 235081622396992452883520394707675444231 (0xB0DB12D71E5FC46590F9274A6E68F407)
Полное имя : D:\Video\С Богами. Последние 49 дней.2018.BDRip 720p by msltel.mkv
Формат : Matroska
Версия формата : Version 4
Размер файла : 5,08 Гбайт
Продолжительность : 2 ч. 21 м.
Общий поток : 5144 Кбит/сек
Название фильма : Rip by msltel
Дата кодирования : UTC 2020-02-15 02:47:02
Программа кодирования : mkvmerge v8.2.0 ('World of Adventure') 64bit
Библиотека кодирования : libebml v1.3.1 + libmatroska v1.4.2

Видео
Идентификатор : 1
Формат : AVC
Формат/Информация : Advanced Video Codec
Профиль формата : High@L4.1
Настройки формата : CABAC / 12 Ref Frames
Параметр CABAC формата : Да
Параметр RefFrames формата : 12 кадров
Идентификатор кодека : V_MPEG4/ISO/AVC
Продолжительность : 2 ч. 21 м.
Битрейт : 4117 Кбит/сек
Ширина : 1280 пикселей
Высота : 536 пикселей
Соотношение сторон : 2,40:1
Режим частоты кадров : Постоянный
Частота кадров : 24,000 кадра/сек
Цветовое пространство : YUV
Субдискретизация насыщенности : 4:2:0
Битовая глубина : 8 бит
Тип развёртки : Прогрессивная
Бит/(Пиксели*Кадры) : 0.250
Размер потока : 4,06 Гбайт (80%)
Библиотека кодирования : x264 core 157 r2969 d4099dd
Настройки программы : cabac=1 / ref=12 / deblock=1:-1:-1 / analyse=0x3:0x113 / me=umh / subme=11 / psy=1 / psy_rd=1.00:0.15 / mixed_ref=1 / me_range=32 / chroma_me=1 / trellis=2 / 8x8dct=1 / cqm=0 / deadzone=21,11 / fast_pskip=0 / chroma_qp_offset=-3 / threads=6 / lookahead_threads=1 / sliced_threads=0 / nr=0 / decimate=1 / interlaced=0 / bluray_compat=0 / constrained_intra=0 / bframes=10 / b_pyramid=2 / b_adapt=2 / b_bias=0 / direct=1 / weightb=1 / open_gop=0 / weightp=2 / keyint=230 / keyint_min=23 / scenecut=40 / intra_refresh=0 / rc_lookahead=40 / rc=crf / mbtree=1 / crf=16.0 / qcomp=0.60 / qpmin=0 / qpmax=69 / qpstep=4 / vbv_maxrate=50000 / vbv_bufsize=62500 / crf_max=0.0 / nal_hrd=none / filler=0 / ip_ratio=1.40 / aq=1:1.00
Язык : Korean
Default : Да
Forced : Нет

Аудио #1
Идентификатор : 2
Формат : AC-3
Формат/Информация : Audio Coding 3
Коммерческое название : Dolby Digital
Идентификатор кодека : A_AC3
Продолжительность : 2 ч. 21 м.
Вид битрейта : Постоянный
Битрейт : 192 Кбит/сек
Каналы : 2 канала
ChannelLayout : L R
Частота : 48,0 КГц
Частота кадров : 31,250 кадров/сек (1536 SPF)
Метод сжатия : С потерями
Размер потока : 194 Мбайт (4%)
Заголовок : MVO STEPonee
Язык : Russian
ServiceKind/String : Complete Main
Default : Да
Forced : Нет

Аудио #2
Идентификатор : 3
Формат : AC-3
Формат/Информация : Audio Coding 3
Коммерческое название : Dolby Digital
Идентификатор кодека : A_AC3
Продолжительность : 2 ч. 21 м.
Вид битрейта : Постоянный
Битрейт : 192 Кбит/сек
Каналы : 2 канала
ChannelLayout : L R
Частота : 48,0 КГц
Частота кадров : 31,250 кадров/сек (1536 SPF)
Метод сжатия : С потерями
Размер потока : 194 Мбайт (4%)
Заголовок : DVO Ворон и Wenlana
Язык : Russian
ServiceKind/String : Complete Main
Default : Нет
Forced : Нет

Аудио #3
Идентификатор : 4
Формат : AC-3
Формат/Информация : Audio Coding 3
Коммерческое название : Dolby Digital
Идентификатор кодека : A_AC3
Продолжительность : 2 ч. 21 м.
Вид битрейта : Постоянный
Битрейт : 192 Кбит/сек
Каналы : 2 канала
ChannelLayout : L R
Частота : 48,0 КГц
Частота кадров : 31,250 кадров/сек (1536 SPF)
Метод сжатия : С потерями
Размер потока : 194 Мбайт (4%)
Заголовок : DVO SOFTBOX
Язык : Russian
ServiceKind/String : Complete Main
Default : Нет
Forced : Нет

Аудио #4
Идентификатор : 5
Формат : AC-3
Формат/Информация : Audio Coding 3
Коммерческое название : Dolby Digital
Идентификатор кодека : A_AC3
Продолжительность : 2 ч. 21 м.
Вид битрейта : Постоянный
Битрейт : 448 Кбит/сек
Каналы : 6 каналов
ChannelLayout : L R C LFE Ls Rs
Частота : 48,0 КГц
Частота кадров : 31,250 кадров/сек (1536 SPF)
Метод сжатия : С потерями
Размер потока : 453 Мбайт (9%)
Заголовок : original
Язык : Korean
ServiceKind/String : Complete Main
Default : Нет
Forced : Нет

Текст #1
Идентификатор : 6
Формат : ASS
Идентификатор кодека : S_TEXT/ASS
Идентификатор кодека/Информация : Advanced Sub Station Alpha
Продолжительность : 2 ч. 15 м.
Битрейт : 3 бит/сек
ElementCount : 24
Метод сжатия : Без потерь
Размер потока : 3,00 Кбайт (0%)
Заголовок : русские форсированные
Язык : Russian
Default : Да
Forced : Да

Текст #2
Идентификатор : 7
Формат : ASS
Идентификатор кодека : S_TEXT/ASS
Идентификатор кодека/Информация : Advanced Sub Station Alpha
Продолжительность : 2 ч. 17 м.
Битрейт : 113 бит/сек
ElementCount : 1639
Метод сжатия : Без потерь
Размер потока : 114 Кбайт (0%)
Заголовок : русские cardinals
Язык : Russian
Default : Нет
Forced : Нет

Текст #3
Идентификатор : 8
Формат : ASS
Идентификатор кодека : S_TEXT/ASS
Идентификатор кодека/Информация : Advanced Sub Station Alpha
Продолжительность : 2 ч. 17 м.
Битрейт : 122 бит/сек
ElementCount : 1718
Метод сжатия : Без потерь
Размер потока : 123 Кбайт (0%)
Заголовок : русские Zipper
Язык : Russian
Default : Нет
Forced : Нет

Текст #4
Идентификатор : 9
Формат : UTF-8
Идентификатор кодека : S_TEXT/UTF8
Идентификатор кодека/Информация : UTF-8 Plain Text
Продолжительность : 2 ч. 16 м.
Битрейт : 45 бит/сек
ElementCount : 1846
Размер потока : 45,2 Кбайт (0%)
Заголовок : английские
Язык : English
Default : Нет
Forced : Нет

Меню
00:00:00.000 : en:Chapter 01
00:12:40.833 : en:Chapter 02
00:27:19.625 : en:Chapter 03
00:38:54.541 : en:Chapter 04
00:54:23.916 : en:Chapter 05
01:09:06.416 : en:Chapter 06
01:24:46.916 : en:Chapter 07
01:33:47.333 : en:Chapter 08
01:55:52.291 : en:Chapter 09
02:09:44.250 : en:Chapter 10
piratbit.cf



Скачать С Богами. Последние 49 дней через торрент https://d.radikal.ru/d09/2002/64/67c06ab57bbd.jpg Скачать фильм С Богами. Последние 49 дней через торрент бесплантно в хорошем качестве О фильме: Три ангела смерти, которые сопровождают в другом мире душу смертного, обязанного пройти семь судов на небе, чтобы заслужить ... 10 10 1
Info! Золотая раздача, скачанное не засчитывается.
Торрент: Зарегистрирован [2020-02-15 06:03] · скачан: 16 раз
Статус: √ проверено
Размер: 5.08 GB
Как cкачать? Как скачать С Богами. Последние 49 дней через торрент | qTorrent

% Раздел Тема Автор DL S | L
Азиатские фильмы [ 14.01 GB ] С Богами. Последние 49 дней / Singwa Hamgge: Ingwa Yeon [2018 BDRip 1080p by msltel] MVO 2 x DVO msltel Скачать
3 | 0
Азиатские фильмы [ 3.13 GB ] С Богами. Последние 49 дней / Singwa Hamgge: Ingwa Yeon [2018 BDRip-AVC by msltel] MVO 2 x DVO msltel Скачать
7 | 0

28-11-2019 20:33  

Отключить всю рекламу на сайте

    Дорогой пользователь! Огромная просьба, поблагодарите релизера, оцените раздачу и оставьте свои комментарий, если Вы скачали С Богами. Последние 49 дней через торрент бесплатно! Внесите свою лепту в развитие PiratBit!
    Комментировать посты могут только пользователи прошедшие не сложную регистрацию
    Показать сообщения:    

    С Богами. Последние 49 дней через торрент
    Скачать бесплатно С Богами. Последние 49 дней
    С Богами. Последние 49 дней скачать торрент
    С Богами. Последние 49 дней смотреть онлайн
    Cкачать фильм С Богами. Последние 49 дней бесплатно
    С Богами. Последние 49 дней скачать торрент в хорошем качестве
    С Богами. Последние 49 дней смотреть онлайн бесплатно в хорошем качестве


    Вы не можете начинать темы
    Вы не можете отвечать на сообщения
    Вы не можете редактировать свои сообщения
    Вы не можете удалять свои сообщения
    Вы не можете голосовать в опросах
    Вы не можете прикреплять файлы к сообщениям
    Вы можете скачивать файлы