Ссылка на приватное зеркало всего за 1$. Внимание количество ограничено!!!

iTunes

1+1

iTunes

мы

MV0

1

WEB-DLRip

Джокер

Пифагор

Ведьмак / The Witcher сериал

iTunes

ПШазам

iTunes

Оно 2

iTunes

30
pack

Вам бонус

ВАЖНО

!!Акция!!

Alien_RageХит недели

RePack

Resident Evil 21

ИГРА 18+

pack

RePack

jed

!!Акция!!

Alien_Rage

RePack

fifa19

RePack

Assassins Creed: Odyssey

RePack

NEED FOR SPEED™ PAYBACK

4 сезон

9 сезон

Бесстыжие 9 сезон

Все сериалы

все сериалы на PB.wtf

RePack

FAR CRY 5
  

Добыча / La proie (Эрик Валетт) [2011, боевик, триллер, драма, криминал, BDRip 1080p by msltel] AVO, VO piratbit.cf

Добыча через торрент piratbit.cf

Раздают: 1 [ 463 KB/s ]
Размер: 11.13 GB | Добавлен: 2 д. 14 ч. назад | Торрент скачан:0 раз
Скачать  

15-02-2020 06:59 Добыча Скачать торрент  

Название: Добыча
Оригинальное название: La proie
Год выпуска: 2011
Страна: Франция
Жанр: боевик, триллер, драма, криминал
Продолжительность: 01:44:33
Перевод: авторский, любительский одноголосый
Режиссер: Эрик Валетт
В ролях: Альбер Дюпонтель, Элис Тальони, Стефан Дебак, Серхи Лопес, Наташа Ренье, Серж Азанавичюс, Зинедин Суалем, Катерина Мурино, Люсьен Жан-Баптист, Жан-Мари Винлин

О фильме: Франк Адриан мотает срок за ограбление банка, и в камеру к нему подсаживают невинно обвинённого человека. На новичка наезжают уголовники, но Адриан заступается за него. Теперь Франку предстоит опасаться братвы, да ещё и подельник требует сказать о тайнике с награбленным...



Качество: BDRip 1080p
Формат: MKV
Видео: MPEG-4 AVC, 11.8 Mбит/с, 1920x820, 24 кадр/с
Аудио 1: русский, AC3, 448 kbps, 6 ch, 48 kHz [авторский, Михаил Чадов]
Аудио 2: русский, DTS, 1509 kbps, 6 ch, 48 kHz [закадровый одноголосый, Вячеслав Замез]
Аудио 3: французский, DTS, 1509 kbps, 6 ch, 48 kHz [оригинал]
Субтитры: английские
Главы/чаптеры
Общее
Уникальный идентификатор : 172685107408331755507402576877005290135 (0x81E9F1225F893D259329D3A1249BBA97)
Полное имя : D:\Video\Добыча.2011.BDRip 1080p by msltel.mkv
Формат : Matroska
Версия формата : Version 4
Размер файла : 11,1 Гбайт
Продолжительность : 1 ч. 44 м.
Общий поток : 15,2 Мбит/сек
Название фильма : Rip by msltel
Дата кодирования : UTC 2020-02-15 05:24:23
Программа кодирования : mkvmerge v8.2.0 ('World of Adventure') 64bit
Библиотека кодирования : libebml v1.3.1 + libmatroska v1.4.2

Видео
Идентификатор : 1
Формат : AVC
Формат/Информация : Advanced Video Codec
Профиль формата : High@L4.1
Настройки формата : CABAC / 5 Ref Frames
Параметр CABAC формата : Да
Параметр RefFrames формата : 5 кадров
Идентификатор кодека : V_MPEG4/ISO/AVC
Продолжительность : 1 ч. 44 м.
Битрейт : 11,8 Мбит/сек
Ширина : 1920 пикселей
Высота : 820 пикселей
Соотношение сторон : 2,35:1
Режим частоты кадров : Постоянный
Частота кадров : 24,000 кадра/сек
Цветовое пространство : YUV
Субдискретизация насыщенности : 4:2:0
Битовая глубина : 8 бит
Тип развёртки : Прогрессивная
Бит/(Пиксели*Кадры) : 0.312
Размер потока : 8,60 Гбайт (77%)
Библиотека кодирования : x264 core 157 r2969 d4099dd
Настройки программы : cabac=1 / ref=5 / deblock=1:-1:-1 / analyse=0x3:0x113 / me=umh / subme=11 / psy=1 / psy_rd=1.00:0.15 / mixed_ref=1 / me_range=32 / chroma_me=1 / trellis=2 / 8x8dct=1 / cqm=0 / deadzone=21,11 / fast_pskip=0 / chroma_qp_offset=-3 / threads=6 / lookahead_threads=1 / sliced_threads=0 / nr=0 / decimate=1 / interlaced=0 / bluray_compat=0 / constrained_intra=0 / bframes=10 / b_pyramid=2 / b_adapt=2 / b_bias=0 / direct=1 / weightb=1 / open_gop=0 / weightp=2 / keyint=230 / keyint_min=23 / scenecut=40 / intra_refresh=0 / rc_lookahead=40 / rc=crf / mbtree=1 / crf=16.0 / qcomp=0.60 / qpmin=0 / qpmax=69 / qpstep=4 / vbv_maxrate=50000 / vbv_bufsize=62500 / crf_max=0.0 / nal_hrd=none / filler=0 / ip_ratio=1.40 / aq=1:1.00
Язык : French
Default : Да
Forced : Нет

Аудио #1
Идентификатор : 2
Формат : AC-3
Формат/Информация : Audio Coding 3
Коммерческое название : Dolby Digital
Идентификатор кодека : A_AC3
Продолжительность : 1 ч. 44 м.
Вид битрейта : Постоянный
Битрейт : 448 Кбит/сек
Каналы : 6 каналов
ChannelLayout : L R C LFE Ls Rs
Частота : 48,0 КГц
Частота кадров : 31,250 кадров/сек (1536 SPF)
Метод сжатия : С потерями
Размер потока : 335 Мбайт (3%)
Заголовок : Михаил Чадов
Язык : Russian
ServiceKind/String : Complete Main
Default : Да
Forced : Нет

Аудио #2
Идентификатор : 3
Формат : DTS
Формат/Информация : Digital Theater Systems
Идентификатор кодека : A_DTS
Продолжительность : 1 ч. 44 м.
Вид битрейта : Постоянный
Битрейт : 1510 Кбит/сек
Каналы : 6 каналов
ChannelLayout : C L R Ls Rs LFE
Частота : 48,0 КГц
Частота кадров : 93,750 кадра/сек (512 SPF)
Битовая глубина : 24 бит
Метод сжатия : С потерями
Размер потока : 1,10 Гбайт (10%)
Заголовок : Вячеслав Замез
Язык : Russian
Default : Нет
Forced : Нет

Аудио #3
Идентификатор : 4
Формат : DTS
Формат/Информация : Digital Theater Systems
Идентификатор кодека : A_DTS
Продолжительность : 1 ч. 44 м.
Вид битрейта : Постоянный
Битрейт : 1509 Кбит/сек
Каналы : 6 каналов
ChannelLayout : C L R Ls Rs LFE
Частота : 48,0 КГц
Частота кадров : 93,750 кадра/сек (512 SPF)
Битовая глубина : 16 бит
Метод сжатия : С потерями
Размер потока : 1,10 Гбайт (10%)
Заголовок : original
Язык : French
Default : Нет
Forced : Нет

Текст
Идентификатор : 5
Формат : UTF-8
Идентификатор кодека : S_TEXT/UTF8
Идентификатор кодека/Информация : UTF-8 Plain Text
Продолжительность : 1 ч. 38 м.
Битрейт : 30 бит/сек
ElementCount : 904
Размер потока : 22,3 Кбайт (0%)
Заголовок : английские
Язык : English
Default : Нет
Forced : Нет

Меню
00:00:00.000 : en:00:00:00.000
00:11:45.333 : en:00:11:45.333
00:20:34.125 : en:00:20:34.125
00:30:45.667 : en:00:30:45.667
00:42:46.583 : en:00:42:46.583
00:52:27.667 : en:00:52:27.667
01:02:57.917 : en:01:02:57.917
01:14:38.375 : en:01:14:38.375
01:23:53.500 : en:01:23:53.500
01:36:47.500 : en:01:36:47.500
01:44:32.792 : en:01:44:32.792
piratbit.cf



Скачать Добыча через торрент https://d.radikal.ru/d28/2002/d3/f2d889682f63.jpg Скачать фильм Добыча через торрент бесплантно в хорошем качестве О фильме: Франк Адриан мотает срок за ограбление банка, и в камеру к нему подсаживают невинно обвинённого человека. На новичка наезжают ... 5 10 1
Info! Золотая раздача, скачанное не засчитывается.
Торрент: Зарегистрирован [2020-02-15 06:59] · скачан: 0 раз
Статус: √ проверено
Размер: 11.13 GB
Как cкачать? Как скачать Добыча через торрент | qTorrent

% Раздел Тема Автор DL S | L
Фильмы с авторской озвучкой [ 4.27 GB ] Добыча / La proie [2011 BDRip 720p by msltel] AVO VO msltel Скачать
3 | 0
Фильмы с авторской озвучкой [ 2.69 GB ] Добыча / La proie [2011 BDRip-AVC by msltel] AVO VO msltel Скачать
7 | 0

28-11-2019 20:33  

Отключить всю рекламу на сайте

    Дорогой пользователь! Огромная просьба, поблагодарите релизера, оцените раздачу и оставьте свои комментарий, если Вы скачали Добыча через торрент бесплатно! Внесите свою лепту в развитие PiratBit!
    Комментировать посты могут только пользователи прошедшие не сложную регистрацию
    Показать сообщения:    

    Добыча через торрент
    Скачать бесплатно Добыча
    Добыча скачать торрент
    Добыча смотреть онлайн
    Cкачать фильм Добыча бесплатно
    Добыча скачать торрент в хорошем качестве
    Добыча смотреть онлайн бесплатно в хорошем качестве


    Вы не можете начинать темы
    Вы не можете отвечать на сообщения
    Вы не можете редактировать свои сообщения
    Вы не можете удалять свои сообщения
    Вы не можете голосовать в опросах
    Вы не можете прикреплять файлы к сообщениям
    Вы можете скачивать файлы